<?xml version="1.0" standalone="no"?>
<!DOCTYPE svg PUBLIC "-//W3C//DTD SVG 1.1//EN" "http://www.w3.org/Graphics/SVG/1.1/DTD/svg11.dtd" >
<svg xmlns="http://www.w3.org/2000/svg" xmlns:xlink="http://www.w3.org/1999/xlink" version="1.1">
<metadata></metadata>
<defs>
<font id="tfarrowbookregular" horiz-adv-x="832" >
<font-face units-per-em="2048" ascent="1638" descent="-410" />
<missing-glyph horiz-adv-x="356" />
<glyph horiz-adv-x="0" />
<glyph horiz-adv-x="682" />
<glyph horiz-adv-x="0" />
<glyph horiz-adv-x="0" />
<glyph unicode="&#xd;" horiz-adv-x="356" />
<glyph unicode=" "  horiz-adv-x="356" />
<glyph unicode="&#x09;" horiz-adv-x="356" />
<glyph unicode="&#xa0;" horiz-adv-x="356" />
<glyph unicode="!" horiz-adv-x="438" d="M110 1166q0 100 23 151.5t74 51.5t73 -51.5t22 -151.5q0 -46 -37 -422.5t-56 -489.5q-22 110 -60.5 486.5t-38.5 425.5zM119 74q0 36 26 61.5t62 25.5q34 0 59.5 -25.5t25.5 -61.5v2q0 -36 -24.5 -61t-58.5 -25q-36 0 -63 25t-27 59z" />
<glyph unicode="&#x22;" horiz-adv-x="502" d="M30 1283q0 24 11.5 43.5t31.5 31t44 11.5q35 0 59.5 -25t24.5 -61h2q0 -33 -38 -168t-48 -135t-48.5 135t-38.5 168zM248 1283q0 36 25 61t60.5 25t60.5 -25t25 -61q0 -21 -17.5 -95.5t-38 -141t-27.5 -66.5q-12 0 -50 134.5t-38 168.5z" />
<glyph unicode="#" horiz-adv-x="1185" d="M-2 345l14 72h229l91 512h-229l16 72h226l60 356h139l-59 -356h290l61 356h140l-62 -354h225l-15 -71h-224l-91 -513h242l-16 -72h-239l-61 -353h-139l62 353h-292l-60 -353h-139l59 351h-228zM379 417h290l91 515h-290z" />
<glyph unicode="$" horiz-adv-x="877" d="M12 375q103 -310 344 -322q0 111 2 302.5t2 281.5q-83 38 -141 75t-104.5 83.5t-69.5 103.5t-23 126q0 73 27.5 135t74 104.5t106 69t126.5 35.5v123h73q0 -20 -2 -61t-2 -60q38 0 75 -6t64 -14t52.5 -18.5t39.5 -18.5t26 -16l13 -7l12 -246q-8 34 -29.5 73t-56 77.5 t-85.5 67t-109 34.5q0 -85 -3 -239.5t-3 -244.5q14 -7 43 -21q53 -26 79 -39t70 -39t66.5 -46t51.5 -51.5t43 -64.5t24.5 -77t10.5 -96q0 -84 -34 -157t-89 -122t-121.5 -79.5t-135.5 -36.5v-133h-73v130q-52 1 -99.5 11t-90.5 29.5t-66.5 32.5t-59.5 35q-11 7 -16 10z M163 1081q0 -81 41.5 -130.5t155.5 -110.5q0 72 -2 222.5t-2 232.5q-45 -3 -80 -18.5t-56 -37t-34 -50.5t-18 -55t-5 -53zM421 616q0 -85 2 -269t2 -288q53 6 94 28t65.5 52t40.5 67t21.5 68.5t5.5 61.5q0 39 -6 70t-21 57t-31.5 44.5t-46 38.5t-56 34.5t-70.5 35.5z" />
<glyph unicode="%" horiz-adv-x="1088" d="M19 1037q0 75 22 138.5t58 105t82 65t95 23.5q39 0 76 -14.5t69 -43t56 -68t38 -93t14 -113.5q0 -80 -22.5 -145.5t-59.5 -106t-82 -62.5t-92.5 -22t-92 22t-80.5 63t-58.5 106t-22.5 145zM117 0q98 166 366.5 679.5t340.5 671.5h101q-102 -174 -370 -685.5t-337 -665.5 h-101zM139 1041q-2 -74 8 -131.5t28.5 -92.5t42.5 -53t53 -19q60 -2 97.5 72t38.5 216h2q0 137 -35.5 219.5t-93.5 82.5q-61 0 -101 -79.5t-40 -214.5zM510 314q0 75 21.5 139.5t57.5 106.5t82 66t96 24q49 0 94.5 -23.5t81 -65.5t57 -106.5t21.5 -140.5v2q0 -80 -22.5 -145 t-60.5 -105.5t-83 -61.5t-93 -21q-47 0 -91.5 21.5t-80.5 61.5t-58 104.5t-22 143.5zM630 320q-1 -97 16.5 -165t47 -100t66.5 -33q64 0 102.5 74t39.5 216q1 90 -16 158.5t-47 105t-68 36.5q-60 0 -100 -78.5t-41 -213.5z" />
<glyph unicode="&#x26;" horiz-adv-x="1088" d="M24 336q0 135 77 235t206 162q-6 9 -35.5 45t-43.5 53.5t-38.5 53.5t-36.5 62t-22 59.5t-10 64.5q0 133 91 215.5t227 82.5q128 0 216 -76t88 -192q0 -35 -9.5 -68t-22.5 -58.5t-37.5 -52.5t-43.5 -44.5t-51.5 -40t-50.5 -33.5t-51 -31l308 -400q25 39 47.5 115t22.5 143 q0 31 -5.5 56.5t-17 47.5t-31.5 36.5t-46 19.5h187q8 -30 8 -74q0 -177 -116 -399q23 -29 72.5 -95.5t77 -101.5t63 -72t60.5 -49h-225q-14 20 -32.5 45t-36 47.5t-33 42t-24.5 30.5l-9 12q-83 -99 -176.5 -146.5t-185.5 -47.5q-98 0 -181 47t-131.5 128.5t-48.5 177.5z M173 383q0 -119 84 -206.5t198 -87.5q143 0 248 148l-352 447q-29 -18 -56.5 -42t-57 -60.5t-47 -88.5t-17.5 -110zM256 1130q0 -63 40 -127t143 -184q82 51 125.5 112.5t43.5 152.5q0 23 -5.5 49.5t-19.5 57t-34 55t-52.5 41t-71.5 16.5q-64 0 -116.5 -47.5t-52.5 -125.5z " />
<glyph unicode="'" horiz-adv-x="269" d="M30 1283q0 24 11.5 43.5t31.5 31t44 11.5q35 0 60.5 -25t25.5 -61q0 -33 -38 -168t-48 -135t-48.5 135t-38.5 168z" />
<glyph unicode="(" horiz-adv-x="573" d="M4 671q0 117 18.5 224.5t47.5 188.5t69.5 152.5t80.5 121t83 90.5t75 63.5t59 37.5q-6 -8 -18 -26q-33 -43 -50.5 -68.5t-49 -77.5t-50 -95t-42.5 -112t-36.5 -138.5t-22 -163t-9.5 -197.5q0 -111 11 -215t27.5 -183t42.5 -155t48.5 -127t53.5 -104t50.5 -81t44.5 -62 q-24 14 -50 33t-58.5 48.5t-63.5 64.5t-63.5 82t-61 100t-54 119.5t-43.5 138.5t-28.5 160t-10.5 181z" />
<glyph unicode=")" horiz-adv-x="573" d="M115 -256q27 35 46 62t50.5 80.5t54 104t48.5 126.5t42.5 155t28 183t11.5 216q0 104 -9.5 197.5t-22 162.5t-36.5 137.5t-42.5 111.5t-50.5 95.5t-49.5 77.5t-50.5 70q-13 17 -20 26q24 -13 51 -32t64 -50t72 -72.5t72 -93t68 -118.5t55.5 -142.5t38.5 -171t14 -198.5 q0 -119 -17 -228.5t-45 -194t-66.5 -159.5t-77.5 -128.5t-83 -98.5t-78.5 -72t-67.5 -46z" />
<glyph unicode="*" horiz-adv-x="580" d="M6 1170q0 3 1 8t1 8q5 16 20 24.5t31 8.5q3 0 8 -1t7 -1q21 -7 62.5 -29.5t72.5 -46.5q15 23 32 23q-11 36 -20 85t-9 68q0 21 14 36.5t36 15.5q15 0 27.5 -7t19.5 -18.5t7 -24.5q0 -22 -10 -71t-26 -84q21 -3 29 -19q33 22 78 43.5t64 26.5q6 2 16 2q16 0 29.5 -8 t17.5 -21q5 -19 5 -20q0 -18 -10 -31.5t-24 -16.5q-81 -19 -157 -19q0 -24 -12 -36q32 -20 65 -54.5t46 -53.5q10 -13 10 -32q0 -25 -18 -37q-15 -12 -30 -12q-24 0 -40 20q-10 15 -32.5 60t-36.5 81h-34q-11 -35 -33 -76t-36 -63q-12 -20 -40 -20q-19 0 -29 8 q-23 16 -23 39q0 18 10 30q10 17 46 51t68 55q-10 16 -10 35q-20 0 -46.5 3.5t-44.5 7t-40.5 8.5t-23.5 5q-17 5 -27.5 18.5t-10.5 31.5z" />
<glyph unicode="+" horiz-adv-x="1022" d="M74 650v119h345v405h119v-405h344v-119h-344v-404h-117v404h-347z" />
<glyph unicode="," horiz-adv-x="269" d="M59 74q0 39 25.5 63t61.5 24q41 0 69.5 -35t28.5 -88q0 -63 -25 -130t-60 -110t-66 -50h-4q-8 0 -8 6q0 4 10 7q13 4 32.5 36t36.5 88.5t17 112.5q-16 -8 -31 -8q-36 0 -61.5 25.5t-25.5 58.5z" />
<glyph unicode="-" horiz-adv-x="474" d="M64 465v107h353v-105z" />
<glyph unicode="." horiz-adv-x="267" d="M68 74q0 37 25 62t62 25q35 0 59.5 -25t24.5 -60q0 -36 -24 -61t-60 -25q-35 0 -61 25t-26 59z" />
<glyph unicode="/" horiz-adv-x="779" d="M-28 -233q80 165 331 785.5t311 798.5h125q-79 -169 -330.5 -791t-311.5 -793h-125z" />
<glyph unicode="0" horiz-adv-x="1133" d="M17 675q0 127 29 239t79.5 194t116.5 141.5t142.5 89.5t155.5 30t154.5 -30t141.5 -89t116.5 -141t79.5 -193.5t29 -238.5q0 -137 -31 -253t-83 -196t-120 -136.5t-142 -82.5t-151 -26q-63 0 -125 19.5t-120 57t-107 97t-86 134t-58 173.5t-21 211zM203 684 q-2 -157 21.5 -278.5t68 -196.5t104.5 -113.5t132 -38.5q73 0 134.5 38.5t108.5 112.5t74 191.5t28 267.5q3 290 -89 461t-237 171q-148 3 -245 -163.5t-100 -451.5z" />
<glyph unicode="1" horiz-adv-x="440" d="M-8 1210l283 159v-1280q0 -58 61 -89h-281q64 29 64 89v1010q0 38 -10.5 63t-28.5 35t-41 13.5t-47 -0.5z" />
<glyph unicode="2" horiz-adv-x="840" d="M-74 0q18 27 140 161t259.5 292.5t193.5 245.5q17 29 29.5 54t24.5 57.5t18.5 70.5t6.5 78q0 127 -66.5 207.5t-184.5 80.5q-84 0 -162 -45t-163 -148q3 48 32.5 102.5t78.5 102t123.5 79t156.5 31.5q67 0 125.5 -23.5t99 -61.5t70 -86.5t43 -98.5t13.5 -98 q0 -62 -21 -126.5t-52 -115.5t-71 -96l-465 -526q480 0 524 2q21 0 36 5t24.5 15t14.5 19t11 24t10 22l16 -224h-865z" />
<glyph unicode="3" horiz-adv-x="748" d="M-64 147q10 -5 36.5 -18t35.5 -17.5t30.5 -13.5t33.5 -12.5t31 -8t37 -6t38 -1.5q78 0 143 25.5t108.5 70t67.5 104t24 128.5q0 36 -8 69t-26 66.5t-50 62t-76.5 53t-109.5 42.5t-145 28q12 6 41.5 20t44 21.5t40 20t41 21.5t34 20.5t32 21.5t23.5 20q79 77 79 183 q0 42 -15.5 79t-40 62.5t-53.5 44t-56.5 27t-49.5 8.5q-61 0 -108.5 -21.5t-101.5 -68.5q9 25 33 56t60 62t87.5 52t105.5 21q74 0 141.5 -38.5t109 -105t41.5 -142.5q0 -189 -256 -298q75 -8 136.5 -36.5t100.5 -67.5t65.5 -87t38 -94t11.5 -91q0 -59 -16 -117.5 t-51 -114.5t-84.5 -99t-124 -69t-162.5 -26q-54 0 -100.5 11t-76.5 25.5t-59.5 40t-44 42.5t-35.5 45z" />
<glyph unicode="4" horiz-adv-x="948" d="M-70 477l796 922v-805h174v-117h-174v-388q0 -58 63 -89h-277q62 30 62 89v388h-644zM139 594h435v513z" />
<glyph unicode="5" horiz-adv-x="786" d="M-46 182q70 -55 124 -81.5t123 -26.5q101 0 180.5 47t121 124.5t41.5 171.5q0 138 -91.5 233t-221.5 95q-69 0 -106 -9t-87 -37l109 645h429q36 0 58.5 5t35 13t27.5 25l-22 -187h-470l-62 -368q31 15 70.5 23.5t62.5 9.5l24 1q54 0 111 -17t112 -51.5t98 -82.5 t69.5 -115.5t26.5 -144.5q0 -92 -28.5 -171t-74 -133t-103.5 -93t-117 -57t-114 -18q-62 0 -115.5 15t-87 36.5t-60.5 51.5t-40 51.5t-23 44.5z" />
<glyph unicode="6" horiz-adv-x="999" d="M19 604q0 103 27 211.5t77.5 206.5t116.5 176.5t151 125t174 47.5q93 0 165 -37.5t91 -82.5q-50 29 -85 38.5t-112 9.5q-70 0 -134 -34.5t-112.5 -91t-86.5 -128.5t-60.5 -148t-29.5 -148q107 143 328 143q52 0 107.5 -17.5t108.5 -54t94.5 -87t67 -122.5t25.5 -154 q0 -96 -29 -176.5t-76 -134.5t-107 -91.5t-120 -54.5t-117 -17q-115 0 -204.5 46t-145.5 129.5t-85 196.5t-29 249zM187 459q0 -87 24.5 -162t65 -125t92.5 -78t108 -28q47 0 87 11t68 28t50.5 42.5t36.5 50t24.5 56.5t15 54.5t7.5 51t3 40v27.5q0 22 -3 49.5t-12 64.5 t-23 72.5t-37 70.5t-52.5 61.5t-72 42.5t-92.5 16q-87 0 -154 -47.5t-101.5 -125.5t-34.5 -172z" />
<glyph unicode="7" horiz-adv-x="783" d="M-32 1132v219h821q-3 -3 -122.5 -335t-236.5 -673.5t-112 -359.5h-163q27 49 67 143.5t82.5 206t87.5 234.5t85 236.5t72 205t50 146.5l19 55h-544q-62 0 -106 -78z" />
<glyph unicode="8" horiz-adv-x="937" d="M16 370q0 68 22 124.5t63 97.5t88 70.5t109 54.5q-217 129 -217 330q0 135 103.5 228.5t262.5 93.5q32 0 65.5 -6t67.5 -18.5t65 -29.5t58.5 -41.5t47.5 -52.5t31.5 -64t11.5 -74q0 -50 -14 -93t-36 -73t-55.5 -56.5t-64 -43.5t-70.5 -34q65 -26 120 -64.5t99 -88 t68.5 -113.5t24.5 -134q0 -77 -24 -142.5t-65.5 -112t-96.5 -79.5t-116.5 -49.5t-126.5 -16.5q-64 -1 -124.5 13.5t-114.5 46t-94.5 76.5t-64 109.5t-23.5 141.5zM155 366q0 -74 24.5 -133.5t65.5 -96.5t92 -57t106 -20q52 -1 99 16t85.5 50t61 86.5t22.5 120.5 q0 42 -9 77.5t-22.5 62.5t-37.5 51.5t-46 40.5t-56.5 34.5t-59.5 30t-64.5 29.5t-64.5 30q-196 -104 -196 -322zM214 1090q0 -47 18 -87.5t44 -68t66.5 -53t74.5 -40.5t80 -32q78 41 122 105t44 167h2q0 27 -7 56t-24 58.5t-42 53t-63.5 38t-85.5 14.5q-94 0 -161.5 -57 t-67.5 -154z" />
<glyph unicode="9" horiz-adv-x="999" d="M12 896q0 81 20.5 151.5t55.5 121t80 89.5t96 63t101 36t98 12q91 0 167.5 -33.5t130 -92t90.5 -137t54.5 -168.5t17.5 -187q0 -107 -26.5 -218t-77 -208.5t-117.5 -174.5t-153 -122t-177 -45q-66 0 -119.5 17t-85.5 43t-46 58q34 -19 44 -24t34.5 -14t49 -11.5 t63.5 -2.5q74 0 140.5 35.5t115 93t86.5 131t59 150t28 149.5q-100 -143 -326 -143q-38 0 -77.5 9t-79 27t-75.5 44.5t-67.5 62.5t-54.5 79t-36 96.5t-13 112.5zM175 927q0 -22 3 -49.5t12 -65t23 -73t37 -70.5t52 -61.5t71 -43t92 -16.5q88 0 155 48t101 126.5t34 173.5 l2 -2q0 88 -24 163t-64.5 124.5t-93 77.5t-108.5 28q-60 0 -108 -17.5t-78 -43t-51.5 -64t-32 -69.5t-16 -71t-6 -57t-0.5 -38z" />
<glyph unicode=":" horiz-adv-x="309" d="M87 74q0 37 25 62t63 25q34 0 58.5 -25t24.5 -62v2q0 -36 -24 -61t-59 -25q-36 0 -62 25t-26 59zM87 832q0 36 25.5 62t62.5 26q34 0 59.5 -25.5t25.5 -62.5q0 -34 -25.5 -59.5t-59.5 -25.5q-24 0 -44 11.5t-32 31.5t-12 42z" />
<glyph unicode=";" horiz-adv-x="309" d="M80 74q0 39 25 63t60 24q42 0 70.5 -35t28.5 -90v2q0 -63 -25 -129.5t-60 -109.5t-66 -49q-7 -5 -10 2t9 9q13 4 32.5 36t36 88.5t16.5 112.5q-16 -8 -32 -8q-35 0 -60 25t-25 59zM85 832q0 36 25.5 62t62.5 26q34 0 59.5 -25.5t25.5 -62.5q0 -34 -25.5 -59.5 t-59.5 -25.5q-36 0 -62 25.5t-26 59.5z" />
<glyph unicode="&#x3c;" horiz-adv-x="1020" d="M0 658v119q37 0 104 17.5t166.5 60.5t205.5 103.5t229.5 158t228.5 212.5q-11 -28 -27 -62.5t-49.5 -92t-73 -111t-99.5 -113t-126 -105.5t-154.5 -81.5t-184.5 -46.5q96 -15 184.5 -52.5t155 -84t125.5 -105.5t99 -112t73.5 -108.5t50 -90t26.5 -61.5 q-105 112 -228.5 208.5t-230 158t-206.5 106t-167 63.5t-102 19z" />
<glyph unicode="=" horiz-adv-x="1022" d="M74 506v122h808v-122h-808zM74 794v120h808v-120h-808z" />
<glyph unicode="&#x3e;" horiz-adv-x="1020" d="M80 103q7 20 18.5 44.5t32.5 64t46.5 78.5t61.5 85t76.5 88t93.5 83.5t110 74.5t127.5 58.5t145.5 37.5q-67 8 -131.5 27.5t-118 48t-102.5 62t-89.5 73t-75 78.5t-63 80.5t-50.5 76.5t-39 69.5t-27 56.5t-16 40q88 -97 189 -181.5t193 -142.5t180.5 -103.5t161.5 -72 t126 -39.5t83 -13v-119q-35 0 -102 -19t-166.5 -63.5t-206 -106t-230 -158t-228.5 -208.5z" />
<glyph unicode="?" horiz-adv-x="716" d="M53 1268q55 57 123 82.5t158 25.5q24 0 48 -2.5t50.5 -8.5t50.5 -16.5t47.5 -25t42 -36t33 -47.5t22 -61t7.5 -76q0 -39 -17 -90.5t-40 -98t-65 -113t-71 -109t-78 -112.5q-50 -70 -72 -119.5t-55 -166.5q-23 82 -23 207q0 53 13 90.5t46 87.5q212 330 212 436 q0 82 -50 134t-117 52q-29 0 -53.5 -4.5t-57.5 -21.5t-58.5 -46t-50 -83t-39.5 -127zM155 74q0 36 26 61.5t61 25.5t60.5 -25.5t25.5 -61.5l2 2q0 -24 -12 -43.5t-31.5 -31t-42.5 -11.5q-35 0 -62 25t-27 59z" />
<glyph unicode="@" horiz-adv-x="1469" d="M-19 404q0 171 58 319t160.5 252.5t248 163.5t314.5 59q104 0 196.5 -21.5t163 -59t129 -88.5t98.5 -109.5t68 -123.5t41 -129t13 -127q0 -115 -24 -212.5t-62 -162.5t-87 -111t-98 -67t-95 -21t-83 11.5t-58.5 27t-37 37t-22 37.5t-10.5 33q-4 -5 -13 -11.5t-36.5 -23.5 t-56.5 -30.5t-71.5 -24t-83.5 -10.5q-74 0 -130 24.5t-88.5 67.5t-48 95.5t-15.5 114.5q0 74 22 150.5t67 149t106.5 129t149.5 91t188 34.5q24 0 52.5 -6t47.5 -13t35.5 -13.5t17.5 -7.5l121 27l-117 -557q-23 -105 -23 -147q0 -51 28.5 -82t83.5 -31q74 0 139.5 67 t104 177t38.5 230q0 98 -27 186.5t-79.5 159t-125 122.5t-166.5 80t-201 28q-110 0 -211.5 -29t-187 -86.5t-148.5 -138.5t-98 -190t-35 -235q0 -156 45.5 -287t128 -224t200 -148t257.5 -62v-29q-133 0 -251.5 31t-215.5 93.5t-168 151t-109.5 208.5t-38.5 261zM497 334 q0 -109 50.5 -175t151.5 -66q47 0 98 20t87 52l115 536q0 5 -1 12t-8.5 25t-19.5 31.5t-38.5 25t-61.5 11.5q-66 0 -133.5 -37.5t-120.5 -100t-86 -151t-33 -183.5z" />
<glyph unicode="A" horiz-adv-x="1103" d="M-99 0q41 28 58.5 47t30.5 48l539 1281q500 -1205 530 -1279q8 -19 13.5 -29t16.5 -23t28 -23.5t43 -21.5h-326q56 23 56 61q0 17 -8 34q-2 4 -23 54.5t-51 122.5t-59 143h-531q-112 -260 -131 -318q-9 -26 -9 -40q0 -38 51 -57h-228zM246 493h473v-2q-49 118 -108 266 t-93 237l-35 89q-134 -342 -237 -590z" />
<glyph unicode="B" horiz-adv-x="1056" d="M61 0q56 26 56 89v1172q0 61 -56 90h344q33 0 68.5 -2.5t82 -11t88 -22t83.5 -37.5t72 -54.5t48.5 -76.5t18.5 -100q0 -47 -14.5 -89.5t-37.5 -73t-51.5 -57t-56.5 -43t-51.5 -28.5t-37.5 -18l-15 -5q8 0 22 -2t54.5 -11.5t77.5 -23.5t82 -42.5t77 -64.5t54 -92t22 -124 q0 -35 -6.5 -69.5t-24 -72t-43.5 -70.5t-68.5 -63t-96.5 -51.5t-129 -34t-164 -12.5h-398zM273 80q35 -8 104 -8h5q36 0 59.5 0.5t73 6.5t84.5 17.5t78.5 35t70.5 56.5t46 85t19 118q0 70 -22.5 124t-58 85.5t-85 51.5t-97.5 27t-103 7l-174 -2v-604zM273 764q34 -5 89 -5 q25 0 45.5 0.5t58 6.5t66 16t61.5 31t55 50t36.5 74t14.5 102l2 -2q0 54 -18 96.5t-46 69t-66.5 44t-76 24t-77.5 6.5q-44 0 -80 -0.5t-50 -1.5l-14 -1v-510z" />
<glyph unicode="C" horiz-adv-x="1356" d="M16 669q0 102 30 201.5t93 190t151.5 159t214.5 109t272 40.5q114 0 225 -30.5t245 -89.5q2 -18 4 -48.5t6 -95t7 -105.5t2 -39q-24 55 -54.5 101t-63.5 79t-67 59t-69.5 42.5t-67 27.5t-63 17t-53.5 8t-43 2q-117 0 -215 -31.5t-167 -86.5t-117.5 -131t-71.5 -163.5 t-23 -185.5q0 -64 10 -128t32 -128t55 -120t80.5 -105t106 -84t135 -55t163.5 -20h6q30 0 49.5 1t61 7t74 17.5t78 36t82.5 58.5q38 34 78 88l74 122q2 0 -19 -266q-115 -72 -248.5 -106t-251.5 -34t-228.5 31.5t-203 92t-162 143t-108.5 191t-39 228.5z" />
<glyph unicode="D" horiz-adv-x="1374" d="M68 0q53 26 53 89v1172q0 63 -53 89h476q136 0 249.5 -27.5t190 -72t135 -105.5t92 -121t54 -125.5t27.5 -112t7 -87.5q0 -66 -13.5 -134t-44 -137t-75 -131.5t-110 -117t-145.5 -94t-186 -62.5t-226 -23h-431zM278 83q86 -5 256 -5q96 0 177 18.5t140.5 51.5t106.5 79.5 t78 100t51 116.5t28.5 125.5t8.5 129.5q0 55 -9 110.5t-29.5 112.5t-50.5 108t-75.5 96t-101.5 77.5t-131 51.5t-161 19q-19 0 -71 0.5t-86.5 0.5t-73 -1.5t-57.5 -3.5v-1187z" />
<glyph unicode="E" horiz-adv-x="887" d="M59 0q58 27 58 89v1172q0 60 -56 90h722l2 -147q-41 47 -110 57q-23 4 -114.5 9.5t-117.5 5.5h-170v-489h333q20 0 41 18t30 39v-186q-8 21 -28.5 39t-40.5 18h-335v-624q103 -13 192 -13h24h10q72 0 103.5 0.5t77 4t65 11t46 21.5t43 35t34.5 53l-38 -203h-771z" />
<glyph unicode="F" horiz-adv-x="836" d="M61 0q56 26 56 89v1172q0 60 -56 90h765l2 -151q-23 35 -63.5 52.5t-110.5 19.5l-379 4v-489h335q20 0 40.5 18t30.5 39v-186q-8 21 -28.5 39t-40.5 18h-337l-2 -626q0 -61 57 -89h-269z" />
<glyph unicode="G" horiz-adv-x="1433" d="M16 669q0 102 30 201.5t93 190t152 159t215 109t273 40.5q113 0 224.5 -31t245.5 -89q17 -284 17 -290q-22 60 -55 110t-69.5 84t-78.5 60.5t-80.5 42t-77 25t-66.5 13t-50 3.5q-118 0 -216 -31.5t-167.5 -86.5t-118 -131t-71.5 -163.5t-23 -185.5q0 -64 10 -128t32 -128 t54.5 -120t80 -105t105.5 -84t134.5 -55t163.5 -20q25 0 50.5 1.5t68.5 8t83 17.5t88.5 32t90.5 49v307q0 63 -53 92h264q-54 -29 -54 -89v-248q0 -20 6.5 -42t13 -35t8.5 -13q-116 -73 -287.5 -114.5t-294.5 -41.5q-117 0 -227.5 31.5t-203 92t-162.5 143t-109 191 t-39 228.5z" />
<glyph unicode="H" horiz-adv-x="1330" d="M61 0q54 26 54 89v1172q0 62 -54 90h265q-53 -26 -53 -90v-474h726v474q0 61 -53 90h264q-54 -24 -54 -90v-1172q0 -63 54 -89h-264q53 26 53 89v626h-726v-626q0 -60 53 -89h-265z" />
<glyph unicode="I" horiz-adv-x="450" d="M66 0q53 26 53 89v1172q0 61 -53 90h262q-52 -26 -52 -90v-1172q0 -61 52 -89h-262z" />
<glyph unicode="J" horiz-adv-x="426" d="M-241 -429q3 2 12 6q23 10 40 18.5t55 34.5t66.5 56t64 82.5t58.5 113t39 149t16 189.5v1041q0 61 -57 90h267q-54 -26 -54 -90v-1030q0 -14 -2 -35t-6 -55.5t-13.5 -71.5t-22.5 -81t-34.5 -87t-48 -86.5t-65 -82t-83.5 -70.5t-104.5 -56t-127.5 -35z" />
<glyph unicode="K" horiz-adv-x="1078" d="M64 0q53 28 53 89v1172q0 61 -53 89h264q-55 -28 -55 -89v-535q61 53 318 303t260 270v16q0 11 -4.5 16.5t-20.5 18.5h270q-40 -12 -83 -34t-65 -44l-519 -510l655 -698q43 -42 102 -64h-335q25 15 25 38v8q-1 9 -84 101t-207.5 224t-193.5 204.5t-118 123.5v-610 q0 -59 55 -89h-264z" />
<glyph unicode="L" horiz-adv-x="885" d="M61 0q56 26 56 89v1172q0 61 -56 90h267q-53 -26 -53 -90v-1170q99 -13 184 -13h22h97t75 2t64 7.5t46 13.5t41.5 22t30.5 33t31 47l-36 -203h-769z" />
<glyph unicode="M" horiz-adv-x="1526" d="M49 1351h231l453 -1073l455 1073h218q-53 -26 -53 -90v-1172q0 -62 53 -89h-263q51 25 51 89v1043q0 10 1.5 21t2.5 17l2 6l-14 -44l-496 -1162l-483 1126l-16 54q4 -34 4 -51v-1010q0 -61 55 -89h-191q54 26 54 89v1172q0 27 -18.5 51.5t-45.5 38.5z" />
<glyph unicode="N" horiz-adv-x="1268" d="M6 1351h236l812 -1013v923q0 63 -53 90h193q-53 -26 -53 -90v-1289q-944 1161 -944 1180v-1063q0 -62 55 -89h-191q54 28 54 89v1113q0 38 -2.5 48.5t-15.5 28.5q-21 26 -40.5 43t-50.5 29z" />
<glyph unicode="O" horiz-adv-x="1533" d="M16 675v20q2 78 25.5 157.5t66 155t106 141t141.5 114.5t178 77.5t210 28.5h24q98 -3 195.5 -33t187.5 -88t159.5 -137t111 -190t41.5 -237v-22q-4 -128 -49.5 -239.5t-118.5 -190.5t-165.5 -136.5t-191 -85t-194.5 -27.5h-17q-112 3 -217.5 37.5t-194.5 97t-156 145 t-104.5 189.5t-37.5 223zM197 703q0 -91 17 -173t47 -146t71.5 -117t89.5 -90t102 -63t108.5 -38t108.5 -12q156 0 277 73t188.5 208t67.5 311h2q0 141 -39.5 260.5t-110 202t-169.5 128.5t-216 46q-116 0 -215.5 -41t-172.5 -115.5t-114.5 -186.5t-41.5 -247z" />
<glyph unicode="P" horiz-adv-x="933" d="M61 0q56 27 56 89v1172q0 60 -56 90h346q83 0 153 -12.5t120 -33.5t89 -51t63.5 -62.5t40.5 -69.5t22.5 -71.5t6.5 -68.5q0 -62 -19 -117.5t-46 -92.5t-62 -68.5t-60 -47.5t-48 -26q-36 -17 -94.5 -29.5t-123.5 -12.5q-102 0 -176 34v-533q0 -61 55 -89h-267zM273 675 q34 -17 104 -17q27 0 54 2.5t63.5 11t68.5 22.5t64 38.5t55 57t37 81t14 107.5q0 145 -81.5 223t-234.5 78q-47 0 -83 -1t-49 -1l-12 -1v-601z" />
<glyph unicode="Q" horiz-adv-x="1535" d="M16 673v21q2 78 25.5 158t65.5 155.5t105.5 141t141 114.5t177.5 77.5t210 28.5h23q98 -3 196 -33t188 -88t159.5 -137t111 -189.5t41.5 -235.5v-23q-4 -117 -43 -221.5t-102.5 -181t-145.5 -135t-171 -91.5t-179 -42q96 -68 192.5 -123t196 -99t178 -73t187.5 -67v2 q-83 -17 -168 -17q-201 0 -392 93.5t-342 277.5q-131 14 -250 70.5t-209 144.5t-143 211t-53 261zM197 703q0 -106 22.5 -199t62.5 -162t92.5 -123t113.5 -87.5t125 -50.5t128 -17q93 0 175.5 27t147.5 79t112 123.5t72.5 164t25.5 198.5h2q0 141 -40 260.5t-110.5 202 t-169.5 128.5t-215 46t-215.5 -41t-172.5 -115.5t-114.5 -186.5t-41.5 -247z" />
<glyph unicode="R" horiz-adv-x="1067" d="M64 0q53 28 53 89v1172q0 61 -53 90h345q64 0 119.5 -7.5t98 -20t79 -31t62 -39t46 -44.5t33 -48t20.5 -49t11.5 -47t3.5 -44q0 -61 -20.5 -115.5t-53.5 -92.5t-74 -66.5t-81 -44t-77 -18.5q23 -5 43.5 -15t38 -24t31 -27t27 -29.5t21 -27t16.5 -25.5q22 -39 58 -101 t115 -186.5t121 -168.5q12 -13 29.5 -26t34.5 -22.5t32 -16.5t24 -11l9 -4l-179 -4h-2q-85 0 -149 93q-67 97 -154 238.5t-88 142.5q-3 6 -18 30.5t-19.5 31t-19 26.5t-22.5 26.5t-23.5 19.5t-29 17.5t-32 9t-38.5 4.5h-129v-546q0 -59 55 -89h-264zM273 713q66 -6 125 -6 q62 0 117.5 19t100 56t71 98t26.5 138v-2q0 31 -7.5 64.5t-27 70.5t-49.5 65t-79.5 46.5t-112.5 18.5q-45 0 -86.5 -2t-59.5 -3l-18 -2v-561z" />
<glyph unicode="S" horiz-adv-x="885" d="M19 379q12 -38 27.5 -73.5t38 -73.5t52 -68.5t65 -55.5t81.5 -39t98 -14q64 0 115 20.5t80.5 50.5t49 69.5t27 74.5t7.5 68q0 50 -14.5 90.5t-32.5 67t-60.5 55t-72.5 44t-94 45.5q-7 4 -10.5 5.5t-10 4.5t-11 5t-10 5t-10.5 5q-62 31 -108.5 59.5t-84.5 61.5t-61.5 68.5 t-36.5 78.5t-13 92q0 65 23 121.5t61.5 96.5t89.5 69t108.5 43t116.5 14q163 0 274 -80l12 -246q-6 28 -22.5 61t-44.5 67.5t-63 62t-84 45.5t-101 18t-92.5 -14.5t-65.5 -37t-41.5 -52.5t-23 -58t-6.5 -56q0 -38 10 -68t28 -54t54 -50t74.5 -48t103.5 -55q20 -10 57.5 -29 t57.5 -29t52 -28t50 -31t43.5 -33.5t39.5 -39t31 -44.5t25 -53t14 -61.5t6 -72.5q0 -61 -18 -116.5t-49.5 -98.5t-73 -78.5t-89 -59t-98.5 -35.5t-100 -12q-41 0 -80 5t-75 16.5t-61.5 20.5t-58 26.5t-45.5 25t-41 24.5z" />
<glyph unicode="T" horiz-adv-x="993" d="M-44 1186v165h1026v-165q-17 30 -44 53.5t-62 24.5q-181 12 -326 12v-1187q0 -60 52 -89h-262q51 25 51 89v1187q-66 0 -148 -3t-130 -6l-49 -3q-23 -1 -45.5 -14.5t-37 -29t-25.5 -34.5z" />
<glyph unicode="U" horiz-adv-x="1183" d="M38 1351h286q-66 -32 -66 -90v-844q0 -32 3.5 -62.5t13 -66.5t25 -67t41.5 -60.5t60.5 -50.5t84 -33.5t110.5 -12.5q82 0 145.5 19.5t104 52t66.5 78.5t36 94q9 44 9 93v10l-5 850q0 62 -52 90h196q-53 -26 -53 -90l-8 -844q-1 -78 -18 -142.5t-48 -111.5t-72 -82 t-92.5 -56.5t-106.5 -31.5t-116 -10q-67 0 -132 13.5t-129 46t-112 81t-78 124.5t-30 171v842q0 56 -63 90z" />
<glyph unicode="V" horiz-adv-x="948" d="M-167 1351h324q-45 -15 -45 -70q0 -23 9 -49q0 -1 37.5 -101.5t91 -243t107.5 -284.5t92 -242l38 -99l366 993q9 29 9 44q0 36 -43 52h188q-16 -11 -25.5 -18t-16.5 -17t-9.5 -14.5t-9 -21t-10.5 -25.5q-15 -33 -137 -361t-236 -638l-114 -311q-481 1237 -515 1310 q-11 24 -19.5 37.5t-29 30t-52.5 28.5z" />
<glyph unicode="W" horiz-adv-x="1465" d="M-149 1351h327q-45 -15 -45 -68q0 -25 13 -53l370 -966l149 465q-29 77 -67 172.5t-66.5 164.5t-50.5 124l-26 65q-8 18 -13 28t-15.5 24t-27.5 24.5t-41 19.5h319q-44 -16 -44 -70q0 -23 11 -51l111 -282l109 305q10 29 10 46q0 37 -46 52h193q-28 -19 -39.5 -30 t-19.5 -25t-18 -43l-150 -402l207 -591l334 985q9 30 9 46q0 41 -49 60h221q-4 -3 -15.5 -10.5t-14.5 -10t-11.5 -9t-11 -9l-8.5 -8.5t-8.5 -11t-7 -12t-7.5 -14.5t-6 -17.5l-469 -1304q-140 403 -252 685l-236 -685q-487 1240 -515 1306q-15 38 -35.5 60t-67.5 40z" />
<glyph unicode="X" horiz-adv-x="995" d="M-117 -4q46 25 71.5 46.5t51.5 60.5q251 347 388 568l-362 580q-13 20 -26 34.5t-33 27t-31.5 18.5t-42.5 20h367q-57 -21 -57 -58q0 -23 26 -65l256 -409l269 436q13 19 13 36q0 41 -47 60h241q-41 -19 -65 -40t-45 -56l-321 -508l408 -650q32 -52 46 -64.5t67 -36.5 h-354q28 12 42.5 25.5t14.5 35.5q0 25 -23 64l-298 478l-331 -502q-11 -21 -11 -40q0 -43 46 -61h-260z" />
<glyph unicode="Y" horiz-adv-x="903" d="M-147 1351h354q-2 0 -9.5 -3.5t-9.5 -4t-8 -3.5t-8 -4.5t-7 -4.5t-6.5 -5t-4.5 -5.5t-4 -7t-2 -7.5t-1 -9q0 -23 26 -69l294 -495l272 522q16 26 16 48q0 17 -13 28t-41 20h239q-42 -19 -68.5 -43t-45.5 -59l-322 -603v-557q0 -52 72 -89h-308q73 36 73 89v548l-373 618 q-22 35 -46.5 54.5t-68.5 41.5z" />
<glyph unicode="Z" horiz-adv-x="961" d="M-48 0l745 1276q-58 0 -162 1.5t-148 1.5q-181 0 -246 -22q-48 -16 -82.5 -46t-50.5 -63v203h919l-738 -1271q4 0 67.5 -2t115.5 -2q252 0 401 23q49 9 80.5 39.5t46.5 66.5v-205h-948z" />
<glyph unicode="[" horiz-adv-x="432" d="M89 -254v1774h322v-28h-176v-1721h176v-25h-322z" />
<glyph unicode="\" horiz-adv-x="959" d="M-2 1351h115q40 -93 207 -376t355.5 -592t230.5 -383h-114q-40 91 -207 372.5t-354.5 590.5t-232.5 388z" />
<glyph unicode="]" horiz-adv-x="432" d="M22 -229h177v1721h-177v28h321v-1774h-321v25z" />
<glyph unicode="^" horiz-adv-x="891" d="M161 995q-8 8 124 132t144 124t145.5 -123.5t126.5 -132.5q-2 -3 -19 2.5t-41 16.5t-52.5 25t-56.5 28t-51.5 26t-37.5 20l-14 7l-165 -85q-97 -47 -103 -40z" />
<glyph unicode="_" horiz-adv-x="1251" d="M-14 -137h1275v-60h-1275v60z" />
<glyph unicode="`" horiz-adv-x="516" d="M76 1186q0 29 18 47t45 18q45 0 87 -61l105 -124q52 -65 48 -71q-4 -4 -29.5 6.5t-60 28.5t-68.5 36t-57 31l-23 14q-65 31 -65 75z" />
<glyph unicode="a" horiz-adv-x="834" d="M8 222q0 144 131 225q43 26 136 54t172 54.5t105 54.5v82q0 32 -9 62t-28 56.5t-54.5 42t-83.5 15.5q-50 0 -91 -14.5t-69 -37.5t-52.5 -60.5t-40.5 -74.5t-33 -89l-6 238q5 4 15 11q34 23 54 35t56.5 28.5t80 24t96.5 7.5q39 0 76 -5.5t80 -22.5t74.5 -44t53 -75 t21.5 -110v-544q0 -3 -0.5 -14.5t0 -14.5t1 -12t2 -12t4.5 -10t7.5 -9.5t10.5 -6.5t14.5 -6.5t19.5 -3.5l-127 -65q-26 18 -38.5 32t-20.5 43.5t-9 78.5q-36 -40 -76.5 -71t-105 -56t-132.5 -25q-50 0 -91.5 17t-67 43.5t-43.5 60t-25 63t-7 55.5zM149 254q0 -54 18.5 -92.5 t53.5 -58.5t85 -20q141 0 248 116l2 328q-23 -12 -50.5 -22.5t-47.5 -17t-62 -19.5t-66 -21q-86 -29 -133.5 -73.5t-47.5 -119.5z" />
<glyph unicode="b" horiz-adv-x="963" d="M24 1317l213 52v-554q70 62 131.5 91.5t145.5 29.5q73 0 136 -28.5t106 -75t74 -107t45.5 -123.5t14.5 -125q0 -71 -17.5 -140t-55 -133.5t-91 -113.5t-131.5 -78t-170 -29q-31 0 -65 5.5t-65 15t-59.5 20.5t-53.5 23t-42.5 21.5t-31.5 17.5l-13 7v1147q0 20 -5 34 t-16 22t-19.5 11.5t-24.5 8.5q-4 1 -6 1zM237 159q2 -4 7 -11.5t24 -26.5t42.5 -33.5t64 -26.5t88.5 -12q32 0 66.5 12.5t72 44t66.5 77.5t48 120.5t19 166.5q0 84 -18.5 149.5t-47 105.5t-67 66t-74.5 35.5t-73 9.5q-59 0 -118 -20.5t-100 -70.5v-586z" />
<glyph unicode="c" horiz-adv-x="817" d="M19 455q0 61 16 125t52 128.5t87 114.5t128.5 81.5t169.5 31.5q53 0 117 -19t101 -38l38 -19v-254q-34 117 -108.5 190.5t-166.5 73.5q-58 0 -107 -24t-81.5 -63.5t-55 -90.5t-32.5 -104t-10 -105q0 -77 20 -147.5t58.5 -126.5t100.5 -89t139 -33q43 0 83 9.5t67.5 22 t56 32t43 32.5t32.5 31q-2 -19 -14 -46.5t-38.5 -60.5t-62 -60t-90 -45.5t-117.5 -18.5q-85 0 -156.5 29t-120.5 76.5t-83 109.5t-50 127t-16 130z" />
<glyph unicode="d" horiz-adv-x="955" d="M17 474q0 63 18.5 127.5t57 124.5t91 107t127 75t159.5 28q111 0 192 -70v376q0 20 -5.5 34t-16.5 22t-19.5 11.5t-24.5 8.5q-4 1 -6 1l212 50v-1250q0 -9 1.5 -16.5t3 -13.5t5.5 -11.5t6 -9t8 -7.5t8.5 -5.5t10 -4.5t9.5 -3.5t10.5 -3t9.5 -2.5l-203 -59l-4 110 q-25 -25 -63 -49t-91.5 -42.5t-103.5 -18.5q-83 0 -150.5 29t-111.5 77t-74 112.5t-43 132.5t-13 140zM171 477q0 -92 22 -165t54.5 -116.5t74.5 -72t78 -39t69 -10.5q37 0 77 14t67.5 32t48.5 37v603q-26 45 -69 75.5t-104 30.5q-142 0 -230 -106t-88 -283z" />
<glyph unicode="e" horiz-adv-x="895" d="M19 453q0 63 17 129t54 129.5t88 113.5t126.5 80.5t164.5 30.5q47 0 95.5 -13.5t96 -45t84 -77t59 -114.5t22.5 -152h-646q0 -4 -1 -15.5t-1 -16.5v-53q4 -104 41 -184.5t109.5 -129t172.5 -48.5t196.5 68.5t126.5 146.5q-3 -61 -32 -119t-76.5 -102t-114 -71t-140.5 -27 q-83 0 -155 27.5t-123.5 74.5t-89 107.5t-56 127t-18.5 133.5zM184 598h489v-2q0 74 -19 129.5t-52 86.5t-72.5 45.5t-86.5 14.5q-45 0 -84.5 -15.5t-68 -41t-50.5 -61.5t-35.5 -74.5t-20.5 -81.5z" />
<glyph unicode="f" horiz-adv-x="444" d="M-4 840v68h110v176q0 82 28 145.5t87.5 101.5t142.5 38q51 0 88 -11t73 -39v-171v-1q-11 59 -52.5 111t-89.5 52q-37 0 -64.5 -16t-41 -37t-21.5 -51.5t-10 -51t-2 -43.5v-201h270v-68h-270v-766q0 -32 13 -46t43 -30h-249q29 14 42 29t13 45v766h-110z" />
<glyph unicode="g" horiz-adv-x="863" d="M-8 -235q0 27 7 50.5t15.5 40.5t27 35t29.5 27.5t35.5 23.5t34 19t34.5 17q-2 0 -6 1t-14 5t-19.5 9t-21 14t-19.5 19.5t-13.5 26.5t-5.5 34q0 93 166 181q-94 40 -150 122t-56 196q0 95 51 177t131.5 127.5t168.5 45.5t151 -22h300v-68h-196q57 -50 87.5 -118t30.5 -138 q0 -71 -26.5 -134.5t-73.5 -110.5t-115.5 -75t-146.5 -28q-14 0 -37.5 3t-32.5 3q-34 -2 -62.5 -12t-46.5 -29.5t-18 -45.5q0 -31 37 -45.5t128 -14.5l174 -4q39 0 74 -4t75 -17t68.5 -34t47.5 -58t19 -87q0 -71 -36.5 -136t-100 -113.5t-154 -77.5t-192.5 -29 q-62 0 -121.5 12.5t-111.5 38t-84 70.5t-32 103zM99 -201q0 -34 19 -66t55 -58.5t96 -43t135 -16.5q89 0 160.5 29.5t111 80.5t39.5 114q0 24 -9 43.5t-21 32t-32 22t-35 14.5t-37 8t-31 3.5t-23 1.5q-178 0 -273 10q-66 -25 -110.5 -73t-44.5 -102zM178 599 q0 -68 13.5 -122t34.5 -86t49 -53t55 -28.5t55 -7.5q47 0 87 16.5t72 49.5t50 88.5t18 127.5q0 147 -59.5 220.5t-154.5 73.5q-68 0 -117 -31t-76 -94t-27 -154z" />
<glyph unicode="h" horiz-adv-x="976" d="M30 1319l212 50v-580l9 6q29 25 51.5 42t64.5 43.5t87 41t88 14.5q55 0 106.5 -18t93 -51t67 -85.5t25.5 -116.5v-589q0 -32 11.5 -46.5t40.5 -29.5h-242q28 13 40.5 28.5t12.5 45.5v522q0 49 -11 89t-36 74.5t-70 53.5t-108 19q-65 0 -131 -33.5t-99 -75.5v-647 q0 -32 12.5 -46.5t43.5 -29.5h-249q28 13 40 28t12 46v1168q0 21 -5.5 35t-18.5 22.5t-21 11.5t-26 8z" />
<glyph unicode="i" horiz-adv-x="392" d="M30 886l212 50v-860q0 -32 12 -46.5t42 -29.5h-247q27 14 39.5 29t12.5 45v735q0 20 -5 34t-16 22t-19 11t-24 8q-5 1 -7 2zM87 1245q0 23 12 42.5t31.5 31.5t42.5 12q34 0 59.5 -25t25.5 -59q0 -37 -24.5 -63t-58.5 -26q-36 0 -62 26t-26 61z" />
<glyph unicode="j" horiz-adv-x="375" d="M-169 -195q20 -78 54 -116t89 -38q34 0 59 16t36.5 39t18 46t6.5 39l1 16v1002q0 20 -5 34t-16 22t-19 11t-24 8q-4 1 -7 2l211 50v-1071h2q0 -112 -72.5 -193t-172.5 -81q-40 0 -73 8.5t-45.5 15.5t-40.5 25zM80 1245q0 23 11.5 42.5t32 31.5t43.5 12q22 0 42 -11.5 t31.5 -30.5t11.5 -42q0 -24 -11 -44.5t-30.5 -32.5t-41.5 -12q-36 0 -62.5 26t-26.5 61z" />
<glyph unicode="k" d="M28 1315l214 54v-867l328 317q28 27 28 49q0 29 -50 44h278q-3 -2 -17.5 -9t-18.5 -9t-16.5 -8.5t-18 -10t-16.5 -9.5t-18 -11t-16 -12t-17 -15q-22 -19 -51.5 -46t-59.5 -54.5t-60.5 -56t-57 -53t-47 -44t-32.5 -30.5l-12 -11l426 -444q25 -25 35.5 -34.5t34 -25.5 t54.5 -29h-322q41 16 41 48q0 14 -9 24l-386 398v-394q0 -32 12 -46.5t42 -29.5h-248q27 13 40 28.5t13 45.5v1164q0 22 -5.5 36.5t-18 22.5t-22 11.5t-27.5 6.5z" />
<glyph unicode="l" horiz-adv-x="394" d="M28 1319l214 50v-1293q0 -32 12 -46.5t42 -29.5h-247q27 14 39.5 29t12.5 45v1168q0 52 -43 68q-8 3 -25 8z" />
<glyph unicode="m" horiz-adv-x="1543" d="M38 888l212 48v-145q2 1 33.5 28t51.5 40.5t55 35t72 31.5t74 10q89 0 166.5 -49t106.5 -134q19 25 44 50.5t56.5 49.5t65.5 42.5t72 29.5t73 11q52 0 102.5 -17.5t93 -49.5t68.5 -84.5t26 -117.5v-591q0 -32 12 -46.5t40 -29.5h-245q29 14 43 29t14 45v528 q0 49 -11.5 89t-36.5 73t-69.5 51.5t-105.5 18.5q-41 0 -84.5 -18.5t-80.5 -49t-65 -69.5q3 -9 3 -28v-593q0 -32 12 -46.5t40 -29.5h-245q29 14 42 29t13 45v532q0 48 -11 87t-35.5 72t-69.5 51t-107 18q-44 0 -87.5 -17.5t-73.5 -40.5t-52 -50v-650q0 -22 8 -36.5 t17.5 -21.5t30.5 -18h-249q28 14 41.5 29t13.5 45v735q0 11 -2.5 20.5t-4 16t-8 12.5t-9 9t-12 7t-11.5 5t-14 4.5t-13 4.5z" />
<glyph unicode="n" horiz-adv-x="957" d="M32 888l210 48v-147q18 19 44 41.5t63.5 47.5t84.5 41.5t93 16.5q53 0 104.5 -18.5t93 -51.5t67 -85.5t25.5 -115.5v-589q0 -22 7 -36.5t16 -22t28 -17.5h-242q28 13 40.5 28t12.5 46v520q0 38 -6 70.5t-21.5 64.5t-40 54t-64.5 35.5t-92 13.5q-32 0 -64.5 -10 t-59.5 -26.5t-49 -34.5t-40 -38v-647q0 -32 12 -46.5t42 -29.5h-247q28 13 40 28t12 46v735q0 22 -5 36.5t-17 22.5t-20.5 11.5t-26.5 8.5z" />
<glyph unicode="o" horiz-adv-x="937" d="M17 461q1 68 19.5 136t55.5 129t87 108q51 46 119 74q66 27 140 26h5q86 0 157.5 -27.5t119 -74t81 -108.5t47.5 -130q14 -63 14 -128v-9q0 -67 -19.5 -135t-56.5 -129t-87.5 -107.5t-118.5 -74t-143 -27.5q-86 0 -157.5 29.5t-119 77t-80.5 110t-48 128t-15 132.5z M169 447q3 -77 22 -147.5t53 -127t86 -90t115 -33.5h10q63 3 113 36.5t80 88t45.5 122t15.5 141.5v33q-4 77 -22.5 146.5t-51 128t-85 93t-117.5 34.5h-10q-64 -3 -114 -37.5t-80 -91.5t-45 -125t-15 -144v-27z" />
<glyph unicode="p" horiz-adv-x="967" d="M32 884l205 52v-132q21 28 58.5 56.5t96.5 52t118 23.5q50 0 101.5 -16.5t102.5 -53.5t91 -90.5t64.5 -134.5t24.5 -178q0 -52 -12.5 -107t-36.5 -109t-62 -101.5t-86 -84t-112.5 -57.5t-137.5 -21q-118 0 -208 47v-407q0 -31 12.5 -46t40.5 -28h-246q26 11 38.5 27 t12.5 47v1181q0 22 -5 36.5t-16.5 23t-19 12t-24.5 8.5zM239 153q80 -105 194 -105q137 0 220.5 108.5t83.5 300.5q0 90 -20 160t-50 110.5t-69.5 66t-74 34t-68.5 8.5q-63 0 -122.5 -31t-93.5 -74v-578z" />
<glyph unicode="q" horiz-adv-x="938" d="M19 436q0 69 18.5 139t57.5 135.5t94 115.5t133.5 80t170.5 30q16 0 34 -2.5t34.5 -6.5t32 -8.5t29.5 -10t23.5 -9.5t18 -7.5l8.5 -3.5q9 3 40.5 11t59.5 14l27 7v-1297q0 -21 7 -35.5t17.5 -22t30.5 -16.5h-247q27 11 39.5 27t12.5 47v457q-61 -50 -113.5 -73.5 t-131.5 -23.5q-81 0 -148 26.5t-112 71t-76 103.5t-45.5 122t-14.5 130zM175 461q0 -79 18.5 -148t54 -123t92.5 -85t129 -31q53 0 105.5 21.5t85.5 57.5v596q-2 5 -4.5 12.5t-15 28t-29.5 36t-49 28t-71 12.5q-58 0 -113.5 -26t-101.5 -75t-73.5 -128.5t-27.5 -175.5z" />
<glyph unicode="r" horiz-adv-x="571" d="M30 886l212 50v-177q34 57 100.5 117t114.5 60q18 0 29.5 -1.5t16 -3t13.5 -5.5t15 -6v-156v-2q-25 25 -49 37t-59 12q-90 0 -181 -117v-618q0 -31 12.5 -45.5t41.5 -30.5h-247q28 13 40 28t12 46v735q0 20 -5 34t-16 22t-19 11t-24 8q-5 1 -7 2z" />
<glyph unicode="s" horiz-adv-x="648" d="M8 80v242q16 -72 49 -131.5t85.5 -98.5t115.5 -39q31 0 57.5 7t45.5 18t34 26t24.5 30.5t16 32t9 29.5t2.5 24q0 17 -2.5 31.5t-9.5 28.5t-12.5 24t-20 22.5t-23.5 20t-30.5 21.5t-33 21t-40 23.5t-42.5 24.5q-116 69 -159.5 124t-43.5 138q0 24 6 49t19 52t35 51 t51 43.5t71.5 30.5t93.5 11q99 0 210 -64v-222q-12 43 -30 80t-43.5 71t-62.5 53.5t-80 19.5q-29 0 -54.5 -8t-43 -21t-30.5 -29.5t-19 -33.5t-6 -33q0 -25 8.5 -46.5t19.5 -37t36.5 -35t45 -31.5t59.5 -36q4 -2 11 -7q36 -21 54.5 -32t50.5 -32.5t49 -37t39.5 -40t33.5 -47 t19.5 -52t8.5 -61.5q0 -63 -29.5 -115.5t-76.5 -86t-103.5 -51.5t-112.5 -18q-39 0 -75.5 8t-73 27t-53 29t-50.5 33z" />
<glyph unicode="t" horiz-adv-x="533" d="M10 840l219 244v-172h281v-72h-286v-572q0 -52 13 -91.5t32 -61t45 -35t47.5 -17.5t43.5 -4q16 0 29.5 1.5t23 3.5t19.5 5.5t15.5 6.5t13.5 8.5t11.5 8.5t11 9.5t9.5 9.5h-2q0 -41 -58.5 -85t-130.5 -44q-113 0 -185.5 70.5t-72.5 206.5v580h-79z" />
<glyph unicode="u" horiz-adv-x="959" d="M14 886l210 50v-580q0 -124 59.5 -196.5t153.5 -72.5q31 0 59 6.5t47 14t44 25t38 28t40 34.5v614q0 9 -1 17t-2.5 13.5t-5.5 11t-6 9t-8 7t-8 5.5t-10 4.5t-9.5 3t-10.5 3t-10 3.5l208 50v-790q0 -98 82 -108l-149 -55q-21 15 -30 23t-20 23.5t-14.5 37.5t-3.5 56 q-126 -140 -290 -140q-36 0 -73 9.5t-78 36t-71.5 66.5t-51 107t-20.5 152v455q0 10 -1 18.5t-4 15t-5 11.5t-8.5 9t-8.5 6.5t-10.5 5.5t-10 4t-11.5 3.5t-10 3.5z" />
<glyph unicode="v" horiz-adv-x="712" d="M-106 910h299q-60 -21 -60 -66q0 -11 6 -25l225 -580l230 572q8 23 8 37q0 22 -15.5 35.5t-50.5 26.5h231q-29 -12 -49.5 -33t-36.5 -58l-355 -838l-338 832q-18 43 -38.5 66t-55.5 31z" />
<glyph unicode="w" horiz-adv-x="1211" d="M-101 912h315q-71 -23 -71 -66q0 -4 4 -23l198 -569l199 523l-25 57q-15 33 -38.5 50.5t-69.5 27.5h340q-76 -21 -76 -68q0 -10 4 -21l195 -561l227 542q6 15 6 28q0 27 -18 49t-48 31h240q-33 -13 -59.5 -43t-39.5 -58l-356 -828l-246 692l-268 -692l-318 832 q-14 38 -36.5 60.5t-58.5 36.5z" />
<glyph unicode="x" horiz-adv-x="732" d="M-149 0q37 10 79.5 38t57.5 51l272 370l-268 367q-27 38 -45 53t-59 33h326q-18 -7 -28.5 -12.5t-19.5 -15.5t-9 -24q0 -25 23 -60l174 -242l182 255q14 19 14 38q0 42 -57 61h254q-26 -12 -44.5 -24.5t-33 -26.5t-30.5 -35l-241 -322l294 -419q12 -17 27 -30t22.5 -18.5 t31.5 -19t31 -17.5h-321q18 7 28 12.5t17.5 15t7.5 21.5q0 23 -26 63l-203 290l-231 -317q-15 -18 -15 -39q0 -33 47 -46h-257z" />
<glyph unicode="y" horiz-adv-x="750" d="M-85 910h314q-18 -7 -27 -11t-21 -12t-17 -18.5t-5 -24.5q0 -18 10 -44l216 -590q173 393 246 590q11 29 11 40q0 55 -74 70h255q-40 -20 -63.5 -39.5t-36.5 -51.5q-51 -125 -252.5 -583t-303.5 -708h-169q17 8 30.5 17t23.5 15.5t20 18t14.5 16t13 19t11 18t11.5 21 t11 21.5q19 36 43.5 84.5t42 85t48.5 102t47 98.5l-300 775q-8 18 -15 30.5t-12 20t-15 14t-14.5 9t-20 8.5t-22.5 9z" />
<glyph unicode="z" horiz-adv-x="762" d="M-28 0l525 842q-44 2 -177 2q-151 0 -201 -2q-42 -3 -66.5 -20t-38.5 -47l5 137h678l-519 -844h90q209 0 338 8q14 1 26 3t21.5 6t17 8.5t13 10.5t10 11t8.5 12.5t6.5 13t6 13.5t6.5 13l-8 -167h-741z" />
<glyph unicode="{" horiz-adv-x="442" d="M-19 639q25 8 43.5 21t29.5 33t18 38.5t10.5 47t4 49.5t0.5 54v405q0 59 16 101.5t43 67.5t71.5 39.5t92 19.5t113.5 5q-29 -8 -48 -14.5t-40.5 -16.5t-35 -20.5t-26.5 -26.5t-20.5 -35.5t-11.5 -45.5t-4 -58v-395q0 -127 -38.5 -185t-128.5 -81q62 -16 97.5 -49.5 t51.5 -88.5t16 -142v-398q0 -91 45.5 -140.5t142.5 -77.5q-74 0 -125 6t-93.5 22t-67 44.5t-37.5 71.5t-13 104v402v18v45t-2 40.5t-6 39.5t-11.5 32.5t-18.5 29.5t-28.5 21.5t-39.5 16.5z" />
<glyph unicode="|" horiz-adv-x="335" d="M108 -235v1717h112v-1717h-112z" />
<glyph unicode="}" horiz-adv-x="442" d="M14 -254q95 27 141 76.5t46 139.5v398q0 130 36.5 192.5t130.5 86.5q-90 25 -127.5 83t-37.5 184v395q0 32 -4.5 58t-11.5 45.5t-20.5 35.5t-27 27t-35.5 21t-41.5 16.5t-48.5 15.5q65 0 112 -5t91 -19.5t71 -39.5t43 -66.5t16 -100.5v-405q0 -39 1.5 -64.5t7.5 -58 t17.5 -53.5t32.5 -39t51 -27q-23 -6 -40 -17t-28.5 -22.5t-19.5 -30.5t-12 -33t-5.5 -39.5t-2 -40.5t-0.5 -45v-16v-402q0 -76 -19 -125t-62.5 -76.5t-102.5 -38t-151 -10.5z" />
<glyph unicode="~" horiz-adv-x="957" d="M193 1052q1 8 10 20.5t23 27.5t34 30t41.5 27t47 19.5t49.5 7.5q27 0 104 -31t104 -31q30 0 54.5 11t34.5 22l10 11l40 -21q-2 -3 -5.5 -7t-15 -15.5t-23.5 -22t-30.5 -23.5t-36.5 -22t-39.5 -15.5t-42.5 -6.5q-39 0 -83.5 17.5t-79 35t-49.5 17.5q-27 0 -54 -16t-41 -32 l-14 -16z" />
<glyph unicode="&#xa1;" horiz-adv-x="438" d="M72 -244q0 44 41 420.5t62 488.5q13 -76 39.5 -291t46 -404t19.5 -214q0 -98 -26 -150.5t-77 -52.5q-105 0 -105 203zM89 844q0 36 25 62t60.5 26t60.5 -25t25 -61q0 -37 -24 -61.5t-59 -24.5q-38 0 -63 24t-25 60z" />
<glyph unicode="&#xa2;" horiz-adv-x="809" d="M10 658q0 56 13.5 115.5t45 120.5t76 110t112.5 84t148 44q0 32 -0.5 86t-0.5 75h73q0 -19 -1 -56.5t-2.5 -68t-1.5 -32.5q53 0 115 -19t97 -39l35 -19v-248q-32 107 -98 177.5t-151 80.5q0 -119 1 -391.5t1 -385.5q45 0 86 9.5t68 21t56.5 32.5t42 32.5t34.5 31.5 q-3 -19 -14 -44t-34 -56t-54.5 -57.5t-80 -46.5t-104.5 -24q0 -43 1.5 -82.5t2.5 -61.5t1 -23h-73v22t0.5 61t0.5 80q-79 5 -145.5 35.5t-112 77.5t-77 107t-46 123t-14.5 128zM159 686q0 -93 26.5 -172t83.5 -137t136 -75v767h2q-51 -6 -93.5 -33.5t-70.5 -66.5t-47.5 -88 t-28 -98t-8.5 -97z" />
<glyph unicode="&#xa3;" horiz-adv-x="800" d="M0 -17q114 137 168 237.5t54 186.5q0 115 -55 255h-161v73q6 0 62 -1t69 -1q-4 10 -18 42.5t-19 45t-15.5 41t-15.5 46t-11 42t-8 46.5t-2 45q0 45 15.5 91t48 88.5t77 75.5t106.5 53t132 20q37 0 84 -10t97.5 -29t96.5 -45l-8 -236q-6 28 -19 59.5t-37 66.5t-53.5 62.5 t-71.5 45.5t-89 18q-49 0 -88.5 -15t-64.5 -39t-41.5 -54.5t-23 -60t-6.5 -57.5q0 -30 5.5 -61t13.5 -57.5t20.5 -56.5t24 -54t26 -56t23.5 -57q55 1 103 3t78 5t51.5 5.5t32.5 4.5t13 2v-107q-2 0 -7 1t-15 2t-23.5 2.5t-34 3.5t-44.5 3.5t-57.5 3t-71.5 1.5 q27 -87 27 -147q0 -73 -24 -144.5t-62.5 -128t-76.5 -97.5t-78 -72q21 12 42.5 21.5t45 16.5t40.5 12t43.5 8t38.5 5t41 2.5t36 1t38 0.5h33q19 0 52.5 -1t59.5 -1t47 2q79 9 131 48q-42 -63 -106 -181q-65 -27 -136 -24q-44 1 -133 16.5t-136 15.5q-54 0 -84 -1t-85 -9 t-95 -23z" />
<glyph unicode="&#xa4;" horiz-adv-x="1092" d="M4 561l24 67h127v43q0 54 2 78h-151l26 68h131q23 170 97 293t193 189t273 66q53 0 116.5 -19t100.5 -38l37 -19v-252q-35 116 -109.5 189t-165.5 73q-142 0 -241 -124.5t-121 -357.5h161q98 0 174.5 4t116.5 10t66.5 11.5t33.5 9.5l7 5l-62 -142q-2 4 -14 9.5t-103 15 t-246 9.5h-137v-52v-69h81q97 0 174 4t117 9.5t66 11.5t33 10l8 4l-62 -140q-2 4 -14.5 9.5t-104 15t-244.5 9.5h-49q12 -98 41.5 -177.5t68.5 -132t87 -88t96.5 -51t98.5 -15.5t96 12t81.5 32t59.5 38t44 37q-2 -16 -11 -37.5t-25.5 -48t-44.5 -51.5t-63.5 -46t-86 -34 t-108.5 -13q-115 0 -208 41.5t-157.5 118t-103.5 181.5t-51 234h-155z" />
<glyph unicode="&#xa5;" horiz-adv-x="830" d="M-180 1351h353q-2 0 -9.5 -3.5t-9.5 -4t-8 -3.5t-8 -4.5t-7 -4.5t-6.5 -5t-4.5 -5.5t-4 -7t-2 -7.5t-1 -9q0 -23 26 -69l294 -495l272 522q16 26 16 48q0 17 -13 28t-41 20h239q-42 -19 -68.5 -43t-45.5 -59l-307 -578h275v-73h-290v-149h290v-74h-290v-286q0 -52 72 -89 h-307q72 35 72 89v286h-309v74h309v149h-309v71h292l-356 586q-22 35 -46 54.5t-68 41.5z" />
<glyph unicode="&#xa6;" horiz-adv-x="335" d="M108 -235v639h112v-639h-112zM108 760v639h112v-639h-112z" />
<glyph unicode="&#xa7;" horiz-adv-x="800" d="M22 586q0 2 2 4q0 86 64 153t158 87q-81 55 -118 117.5t-37 140.5h2q0 28 9 59.5t30 65t52 60.5t80.5 44.5t108.5 17.5q113 0 223 -67l-2 -221q-11 40 -30.5 78t-47.5 71.5t-67.5 54t-82.5 21.5h-2q-47 0 -83.5 -24t-52.5 -55t-18 -61q0 -59 41.5 -109t125.5 -101 q19 -12 52 -30.5t58 -32.5t58 -35.5t57.5 -41t50 -46t42 -53.5t26.5 -61t10 -70v-6q-1 -88 -64 -154.5t-157 -87.5q93 -72 127 -135.5t34 -149.5q0 -26 -9 -56.5t-32.5 -64t-58 -60.5t-90 -44.5t-123.5 -17.5q-51 0 -117.5 15t-123.5 52l2 221q8 -32 24 -64t39.5 -61.5 t51 -52t61.5 -36t69 -13.5q41 0 76 14t56.5 35.5t34 45t13.5 44.5v10q0 62 -43.5 119.5t-123.5 106.5q-18 12 -51 30.5t-58 32.5t-58.5 35.5t-58 41t-50 46.5t-42 54t-27 62t-10.5 72zM163 608q0 -18 5 -35.5t11 -31.5t21 -30t24.5 -27t31.5 -27t33.5 -24t39 -24t38 -22 t40.5 -23h4q47 0 83.5 16t57 41.5t31 52.5t11.5 53v2q0 21 -7 41.5t-17 36.5t-29 34.5t-34 30.5t-42.5 29.5t-44 27t-48.5 27.5l-7.5 4.5t-7 4t-8.5 4.5h-11q-45 0 -80.5 -16t-54.5 -41t-29 -51t-11 -51v-2z" />
<glyph unicode="&#xa8;" horiz-adv-x="561" d="M40 1118q0 35 24 59.5t59 24.5t59.5 -24t24.5 -58q0 -36 -24.5 -61.5t-59.5 -25.5t-59 25t-24 60zM307 1118q0 35 25.5 59.5t61.5 24.5q34 0 58.5 -24t24.5 -58q0 -37 -23.5 -62t-57.5 -25q-37 0 -63 25t-26 60z" />
<glyph unicode="&#xa9;" horiz-adv-x="1600" d="M91 656q0 145 56.5 277.5t151.5 227.5t226 151.5t275 56.5q145 0 277.5 -56.5t228 -151.5t152 -227.5t56.5 -277.5q0 -144 -56.5 -275t-152 -226t-228 -150.5t-277.5 -55.5q-144 0 -275 56t-226 150.5t-151.5 225.5t-56.5 275zM157 656q0 -131 51 -249.5t137 -205 t205 -137t250 -50.5q133 0 252.5 50.5t206 137t137 205t50.5 249.5q0 134 -50.5 254t-137 206t-206 136.5t-252.5 50.5q-88 0 -171 -23t-153.5 -64t-130 -100.5t-101 -130.5t-64.5 -155.5t-23 -173.5zM334 653.5q0 102.5 35 194t98 159t156.5 106.5t202.5 39q173 0 321 -100 l-68 -95q-68 45 -124.5 62.5t-126.5 19.5q-87 1 -158 -29.5t-117 -83.5t-71 -123t-25 -149q0 -103 43.5 -188t128.5 -136.5t197 -51.5q73 0 132.5 17.5t124.5 58.5l62 -92q-55 -38 -107 -60t-101 -30.5t-111 -8.5q-111 0 -204.5 38t-156 104.5t-97 156t-34.5 192z" />
<glyph unicode="&#xaa;" horiz-adv-x="542" d="M6 929q0 89 83 134q29 16 90 32.5t112.5 32.5t68.5 34v48q0 27 -10 50t-36.5 40t-67.5 17t-71.5 -12t-52 -37t-35 -51.5t-28.5 -66.5l-4 143q26 17 37 23.5t37.5 18.5t55.5 17t65 5q26 0 50.5 -3t52.5 -13t48.5 -26.5t34 -45t13.5 -65.5v-326v-8.5v-8t0.5 -7t1 -7t2 -5.5 t3.5 -5.5t5 -4t7 -4t9 -3t12 -2.5l-84 -38q-24 14 -33.5 31.5t-9.5 59.5q-91 -91 -205 -91q-33 0 -60 10t-43.5 26t-27.5 36t-15.5 38t-4.5 34zM97 950q0 -34 12 -58t35 -36t55 -12q91 0 161 70l2 199q-19 -9 -38.5 -15.5t-55.5 -17t-54 -15.5q-57 -19 -87 -45t-30 -70z" />
<glyph unicode="&#xab;" horiz-adv-x="993" d="M97 489v157q20 0 53 9t84.5 35t105.5 64t117 104.5t117 148.5q-5 -21 -13.5 -45.5t-25.5 -65.5t-37 -79.5t-50.5 -81t-64 -75.5t-79 -58t-94.5 -34q49 -11 94.5 -37.5t79 -60t64 -76t50.5 -80.5t37 -78t25.5 -64.5t13.5 -44.5q-54 81 -117.5 146.5t-117.5 104t-105.5 65 t-84.5 36.5t-52 10zM461 489v157q16 0 42 7t64 22t82.5 43t92 66t99 96t97.5 127q-6 -21 -14 -45.5t-25 -65.5t-37 -79.5t-50.5 -81t-64 -75.5t-79 -58t-94.5 -34q49 -11 94.5 -37.5t79 -60t64 -76t50.5 -80.5t37 -78t25.5 -64.5t13.5 -44.5q-54 81 -117.5 146.5t-117.5 104 t-106 65t-85 36.5t-51 10z" />
<glyph unicode="&#xac;" horiz-adv-x="641" d="M-46 298l535 576v-502h150v-74h-150v-243q0 -20 12 -33.5t32 -21.5h-188q42 18 42 55v243h-433zM93 372h294v322z" />
<glyph unicode="&#xad;" horiz-adv-x="474" d="M64 465v107h353v-105z" />
<glyph unicode="&#xae;" horiz-adv-x="774" d="M28 995q0 101 49.5 186.5t134.5 135.5t185.5 50t187 -50t136.5 -135.5t50 -186.5q0 -102 -50.5 -188.5t-136 -136.5t-186.5 -50t-186 50t-134.5 136.5t-49.5 188.5zM51 995q0 -96 46.5 -176.5t126.5 -127.5t174 -47t173.5 47.5t124.5 128t45 175.5q0 71 -26.5 135.5 t-72.5 111.5t-109.5 74.5t-134.5 27.5t-135 -27.5t-110.5 -74t-74 -111.5t-27.5 -136zM220 794v402h225q157 0 157 -119q0 -58 -45.5 -92.5t-93.5 -27.5l125 -163h-46l-121 163h-165v-163h-36zM256 987h197q21 0 36.5 3t33.5 11.5t28 27.5t10 48q1 89 -112 87h-4h-189v-177z " />
<glyph unicode="&#xaf;" horiz-adv-x="891" d="M131 1067v91h618v-91h-618z" />
<glyph unicode="&#xb0;" horiz-adv-x="597" d="M24 1132q0 104 73 177t178 73q102 0 177 -73t75 -175q0 -104 -74 -177t-178 -73t-177.5 72.5t-73.5 175.5zM103 1134q0 -46 23 -85.5t63 -62.5t86 -23q68 0 117 50.5t49 120.5v-2q0 70 -49 119.5t-117 49.5q-46 0 -86 -22.5t-63 -61t-23 -83.5z" />
<glyph unicode="&#xb1;" horiz-adv-x="1022" d="M72 2v119h806v-119h-806zM72 618v119h345v406h117v-406h344v-119h-344v-404h-117v404h-345z" />
<glyph unicode="&#xb2;" horiz-adv-x="567" d="M-49 508q11 16 93.5 100.5t174.5 183.5t130 154q55 80 55 163q0 51 -19 91.5t-58 64.5t-92 24q-114 0 -221 -121q1 19 10.5 41t25.5 44t40 41.5t52 35t63.5 24.5t72.5 9q57 0 103.5 -22t75 -56.5t44 -73.5t15.5 -77q0 -29 -8 -59.5t-22 -57.5t-30.5 -50.5t-36.5 -44.5 l-316 -328h354q18 0 30 6.5t16.5 12t10.5 18.5t9 17l11 -140h-583z" />
<glyph unicode="&#xb3;" horiz-adv-x="504" d="M-44 604q8 -3 25.5 -11.5t24 -11.5t20.5 -9t22.5 -8t21 -5t25 -4t26.5 -1q105 0 167.5 59t62.5 147q0 35 -13 64.5t-43 58t-86.5 49t-136.5 29.5q11 6 38.5 18t42 18.5t34.5 16.5t34 19t23 18q54 50 54 113q0 33 -16 61t-39.5 45t-47.5 26.5t-42 9.5q-40 0 -73 -14 t-68 -45q10 37 66.5 78.5t126.5 41.5q77 0 137 -53t60 -126q0 -114 -173 -187q62 -5 110 -30t74 -59.5t39 -71t13 -71.5q0 -47 -18 -93t-52 -86t-92.5 -64.5t-131.5 -24.5q-45 0 -81 9t-61.5 26.5t-40 31.5t-32.5 36z" />
<glyph unicode="&#xb4;" d="M260 995q-3 3 11 24.5t36 49t45 55t39 45.5l16 19q47 63 92 63q26 0 45 -18.5t19 -46.5q0 -44 -66 -75l-145 -79q-86 -44 -92 -37z" />
<glyph unicode="&#xb5;" horiz-adv-x="529" d="M-30 626q44 -34 81 -51t84 -17q68 0 122 29.5t82.5 78t28.5 107.5q0 86 -62 145.5t-151 59.5q-45 0 -70.5 -5.5t-58.5 -22.5l73 403h288q36 0 51.5 5.5t31.5 19.5l-13 -114h-318l-44 -231q22 10 49 15t43 5l16 -1q45 0 93 -17t90.5 -47.5t69.5 -81t27 -110.5 q0 -57 -19 -106.5t-50 -83t-70 -57.5t-78.5 -35.5t-76.5 -11.5q-52 0 -94 13.5t-66.5 35t-38 39.5t-20.5 36z" />
<glyph unicode="&#xb6;" horiz-adv-x="1283" d="M0 982q0 34 6.5 68t22.5 71t40.5 69.5t64 62.5t89 51.5t119.5 34t153 12.5h345q-55 -28 -55 -90v-1636q0 -59 55 -90h-264q55 27 55 90v997q-76 -34 -178 -34q-63 0 -121.5 12.5t-94.5 29.5q-23 10 -48.5 26t-61 47.5t-62.5 68.5t-46 92.5t-19 117.5zM169 978 q0 -59 14 -107.5t37 -81t55 -57t64 -38.5t68.5 -22.5t63.5 -11t54 -2.5q66 0 106 17v601q-39 3 -144 3q-154 0 -236 -77.5t-82 -223.5zM912 -465q53 26 53 90v1636q0 61 -53 90h262q-52 -26 -52 -90v-1636q0 -62 52 -90h-262z" />
<glyph unicode="&#xb7;" horiz-adv-x="331" d="M61 673q0 39 27 67.5t65 28.5q39 0 66 -28t27 -68q0 -38 -26.5 -64.5t-64.5 -26.5q-40 0 -67 26.5t-27 64.5z" />
<glyph unicode="&#xb8;" horiz-adv-x="817" d="M235 -280q53 -37 82.5 -52t54.5 -15q53 0 87 31t34 75t-31 73t-73 29q-29 0 -53 -10.5t-54 -34.5l116 222h29l-50 -118q21 0 43.5 -2.5t53.5 -12.5t54.5 -26t40.5 -46.5t17 -71.5q0 -69 -54 -112t-141 -43q-122 0 -156 114z" />
<glyph unicode="&#xb9;" horiz-adv-x="295" d="M-6 1264l188 99v-798q0 -39 44 -57h-188q42 18 42 57v631q0 83 -86 68z" />
<glyph unicode="&#xba;" horiz-adv-x="609" d="M12 1073q0 52 19 102t53.5 91t87 66t114.5 25q47 0 87.5 -12t70 -32.5t52.5 -47.5t37 -59t21 -65.5t7 -67.5v-2q-1 -52 -21 -102.5t-54.5 -91.5t-87.5 -66t-114 -24q-47 0 -87.5 12t-69.5 33.5t-52 49t-36.5 60t-20 65.5t-6.5 66zM110 1065q3 -63 23.5 -116t61 -88 t93.5 -35h8q54 2 92.5 36t55.5 84t17 111v22q-3 61 -22.5 114t-60.5 89.5t-96 36.5h-6q-42 -1 -75 -22t-52.5 -55t-29 -75t-9.5 -86v-16z" />
<glyph unicode="&#xbb;" horiz-adv-x="993" d="M57 127q5 17 12 38t19.5 54t29.5 65.5t39 69.5t50 70.5t60 62.5t72 50.5t84 30.5q-49 9 -94.5 34.5t-78.5 57t-64 76t-50.5 80.5t-38 80t-25.5 65.5t-15 45.5q54 -82 117.5 -148.5t117 -104.5t105 -64t84.5 -35t53 -9v-157h2q-18 0 -51 -10t-85 -36.5t-106 -65t-118 -104 t-119 -146.5zM421 127q5 17 12 38t19.5 54t29.5 65.5t38.5 69.5t50 70.5t60.5 62.5t72 50.5t84 30.5q-49 9 -94.5 34.5t-79 57t-64 76t-50 80.5t-38 80t-26 65.5t-14.5 45.5q54 -82 117.5 -148.5t117 -104.5t105.5 -64t85.5 -35t53.5 -9v-157q-18 0 -51 -10t-85 -36.5 t-106 -65t-118 -104t-119 -146.5z" />
<glyph unicode="&#xbc;" horiz-adv-x="1173" d="M-6 1264l188 99v-798q0 -39 42 -57h-186q42 18 42 57v631q0 83 -86 68zM19 0q43 77 230 382.5t356 590t210 378.5h105q-47 -84 -232 -389t-352.5 -588t-206.5 -374h-110zM487 298l534 576v-502h151v-74h-151v-243q0 -38 44 -55h-187q42 18 42 55v243h-433zM626 370h294 v324z" />
<glyph unicode="&#xbd;" horiz-adv-x="1209" d="M-6 1264l188 99v-798q0 -39 42 -57h-186q42 18 42 57v631q0 83 -86 68zM19 0q43 77 230 382.5t356 590t210 378.5h105q-47 -84 -232 -389t-352.5 -588t-206.5 -374h-110zM592 0q12 16 94.5 100.5t174.5 183.5t130 153q54 80 54 162q0 79 -45 130.5t-124 51.5 q-57 0 -110 -28.5t-110 -92.5q2 29 22 62.5t53 63.5t83 49.5t106 19.5t103 -22t75.5 -56.5t44 -74t15.5 -76.5q0 -57 -27.5 -112.5t-69.5 -100.5l-316 -328h354q18 1 30 7t16.5 11.5t10 18.5t8.5 17l12 -139h-584z" />
<glyph unicode="&#xbe;" horiz-adv-x="1363" d="M-44 604q8 -3 25.5 -11.5t24 -11.5t20.5 -9t22.5 -8t21 -5t25 -4t26.5 -1q105 0 167.5 59t62.5 147q0 35 -13 64.5t-43 58t-86.5 49t-136.5 29.5q11 6 38.5 18t42 18.5t34.5 16.5t34 19t23 18q54 50 54 113q0 33 -16 61t-39.5 45t-47.5 26.5t-42 9.5q-40 0 -73 -14 t-68 -45q10 37 66.5 78.5t126.5 41.5q77 0 137 -53t60 -126q0 -114 -173 -187q62 -5 110 -30t74 -60t39 -71.5t13 -72.5v2q0 -47 -18 -93t-52 -86t-92.5 -64.5t-131.5 -24.5q-45 0 -81 9t-61.5 26.5t-40 31.5t-32.5 36zM210 0q43 77 230 382.5t355.5 590t209.5 378.5h106 q-47 -84 -232 -389t-352.5 -588t-206.5 -374h-110zM677 298l535 576v-502h151v-74h-151v-243q0 -38 43 -55h-186q42 18 42 55v243h-434zM817 370h294v324z" />
<glyph unicode="&#xbf;" horiz-adv-x="716" d="M30 -182q0 38 17.5 88.5t39 94.5t63.5 111t68.5 105.5t76.5 110.5l9 12q52 75 75.5 135.5t49.5 199.5l20 -254q2 -18 1.5 -34t-0.5 -27t-4 -23.5t-5.5 -18.5t-9 -19t-10 -16.5t-13.5 -19.5t-14 -21q-212 -328 -212 -437q0 -82 50 -134t117 -52q28 0 53 4.5t57 22.5 t58 47.5t51 84t40 127.5l6 -250v2q-105 -114 -280 -114q-41 0 -79.5 7t-80.5 25.5t-73 48t-51 79.5t-20 115zM340 844q0 36 24 62t59 26q36 0 61.5 -25.5t25.5 -60.5q0 -37 -24.5 -61.5t-60.5 -24.5t-60.5 24t-24.5 60z" />
<glyph unicode="&#xc0;" horiz-adv-x="1103" d="M-99 0q40 29 58 48t29 47l539 1281q500 -1205 532 -1279q14 -36 32.5 -56t66.5 -41h-326q56 23 56 61q0 17 -6 34q-1 2 -23.5 54t-52 123.5t-57.5 142.5h-533q-49 -115 -131 -318q-7 -21 -7 -40q0 -38 49 -57h-226zM246 493h471l2 -2q-49 118 -108 266t-93 237l-35 89 q-136 -342 -237 -590zM292 1605q0 28 19 46.5t47 18.5q42 0 89 -63q151 -170 151 -193q0 -2 -2 -2h-2q-15 0 -73 29.5t-110 58.5l-51 30q-68 32 -68 75z" />
<glyph unicode="&#xc1;" horiz-adv-x="1101" d="M-108 0q28 20 44 33.5t26.5 28t18.5 33.5l538 1281q500 -1205 532 -1279q13 -35 32 -55.5t67 -41.5h-326q56 23 56 61q0 17 -6 34q-1 2 -23 54t-51.5 123.5t-58.5 142.5h-532q-50 -115 -131 -318q-8 -21 -8 -40q0 -38 49 -57h-227zM239 493h470l2 -2q-49 118 -108 266 t-94 237l-35 89q-135 -342 -235 -590zM437 1412v2q0 6 15.5 27.5t38 49t44.5 54t37 44.5l16 18q50 63 87 63q28 0 47 -18.5t19 -46.5q0 -43 -66 -75q-202 -120 -234 -120z" />
<glyph unicode="&#xc2;" horiz-adv-x="1101" d="M-97 0q40 29 58 48t29 47l539 1281q500 -1205 532 -1279q13 -36 32 -56t67 -41h-326q56 23 56 61q0 14 -6 34q-1 2 -23.5 54t-52 123.5t-57.5 142.5h-533q-49 -115 -131 -318q-7 -21 -7 -40q0 -38 49 -57h-226zM248 493h471l2 -2q-49 118 -108 266t-93 237l-35 89 q-136 -342 -237 -590zM260 1403q0 13 130.5 135.5t142.5 122.5t141.5 -122t129.5 -136h-4q-14 0 -81 31.5t-127 63.5l-59 32q-237 -127 -269 -127h-4z" />
<glyph unicode="&#xc3;" horiz-adv-x="1101" d="M-106 0q41 28 59 47t31 48l539 1281q499 -1205 529 -1279q16 -37 34.5 -56.5t67.5 -40.5h-326q56 23 56 61q0 19 -8 34q-2 4 -23 54.5t-51 122.5t-59 143h-531q-47 -110 -85.5 -204t-45.5 -114q-9 -26 -9 -40q0 -19 12 -33t39 -24h-229zM241 493h472v-2q-49 118 -108 266 t-93 237l-35 89q-134 -342 -236 -590zM246 1452q3 12 23 34.5t49 46t69 41t76 17.5q29 0 110 -32.5t111 -32.5q31 0 57 12t37 23l11 12l41 -26q-4 -5 -11 -13t-30 -28t-46 -36t-55.5 -28.5t-61.5 -12.5q-41 0 -87.5 18.5t-83 37.5t-51.5 19q-28 0 -56 -17t-43 -34l-15 -16z " />
<glyph unicode="&#xc4;" horiz-adv-x="1101" d="M-99 0q40 29 58 48t29 47l539 1281q500 -1205 532 -1279q14 -36 32.5 -56t66.5 -41h-326q56 23 56 61q0 17 -6 34q-1 2 -23.5 54t-52 123.5t-57.5 142.5h-533q-49 -115 -131 -318q-7 -21 -7 -40q0 -38 49 -57h-226zM246 493h471l2 -2q-49 118 -108 266t-93 237l-35 89 q-136 -342 -237 -590zM306 1520q0 23 10.5 42.5t30 31t42.5 11.5q34 0 59.5 -25.5t25.5 -59.5q0 -23 -11.5 -43t-32 -31t-43.5 -11q-34 0 -57.5 24t-23.5 61zM576 1520q0 22 12 42t31.5 31.5t42.5 11.5t42.5 -11.5t31 -31t11.5 -42.5q0 -36 -24.5 -60.5t-60.5 -24.5 q-23 0 -42.5 10.5t-31.5 30.5t-12 44z" />
<glyph unicode="&#xc5;" horiz-adv-x="1103" d="M-97 0q40 29 58 48t29 47l539 1281q500 -1205 532 -1279q13 -36 32 -56t67 -41h-326q56 23 56 61q0 14 -6 34q-1 2 -23.5 54t-52 123.5t-57.5 142.5h-533q-49 -115 -131 -318q-7 -21 -7 -40q0 -38 49 -57h-226zM248 491h473q-49 118 -108 266t-93 237l-35 89 q-136 -342 -237 -592zM404 1512q0 51 37 89t88 38q33 0 63 -17.5t48 -47t18 -62.5q0 -52 -38.5 -91t-90.5 -39q-50 0 -87.5 39t-37.5 91zM445 1512q0 -37 24 -62.5t60 -25.5t60.5 25.5t24.5 62.5q0 24 -11 43t-30.5 30t-43.5 11q-36 0 -60 -24t-24 -60z" />
<glyph unicode="&#xc6;" horiz-adv-x="1499" d="M-209 0q14 9 24 18t16.5 14.5t14.5 15t10.5 13t11.5 16.5t13 18q342 480 754 1069q68 96 116 187h633v-147q-14 25 -52.5 46.5t-78.5 23.5q-202 3 -250 3l-129 -1v-489h336q20 0 41 18t28 39v-186q-7 21 -27.5 39t-41.5 18h-336v-624q80 -15 205 -15h13h27q41 1 60 1.5 t51 1.5t46 3t38 5t35.5 7.5t29 11.5t27 16t22.5 21t22.5 26.5t20.5 33.5l-36 -203h-772q54 26 54 89v366h-465l-258 -370q-18 -24 -18 -43q0 -26 41 -42h-226zM302 533h415v608z" />
<glyph unicode="&#xc7;" horiz-adv-x="1356" d="M16 669q0 102 30 201.5t93 190t151.5 159t214.5 109t272 40.5q114 0 225 -30.5t245 -89.5q2 -18 4 -48.5t6 -95t7 -105.5t2 -39q-24 55 -54.5 101t-63.5 79t-67 59t-69.5 42.5t-67 27.5t-63 17t-53.5 8t-43 2q-117 0 -215 -31.5t-167 -86.5t-117.5 -131t-71.5 -163.5 t-23 -185.5q0 -64 10 -128t32 -128t55 -120t80.5 -105t106 -84t135 -55t163.5 -20h6q30 0 49.5 1t61 7t74 17.5t78 36t82.5 58.5t77.5 88t74.5 122q3 6 -19 -266q-114 -70 -244.5 -104.5t-248.5 -35.5h-27l-26 -61q22 0 45 -2.5t55 -12.5t56 -26t41 -47t17 -73 q0 -48 -25 -84.5t-70 -56.5t-104 -20q-43 0 -75 13t-49 34t-25.5 37.5t-11.5 33.5q51 -37 82.5 -53t57.5 -16q56 0 90.5 31.5t34.5 77.5q0 29 -15 53t-39.5 37t-52.5 13q-31 0 -55.5 -10.5t-55.5 -34.5l89 170q-137 9 -262 62.5t-218.5 140.5t-149 212t-55.5 268z" />
<glyph unicode="&#xc8;" horiz-adv-x="893" d="M59 0q58 27 58 89v1172q0 60 -56 90h722l2 -147q-41 47 -110 57q-23 4 -114.5 9.5t-117.5 5.5h-170v-489h333q20 0 41 18t30 39v-186q-8 21 -28.5 39t-40.5 18h-335v-624q117 -15 216 -13h11q188 0 253 18t115 105l-38 -201h-771zM266 1596q0 27 18.5 46t45.5 19 q44 0 91 -63l99 -119q56 -70 50 -76q-3 -4 -28.5 6.5t-60 28.5t-68.5 36.5t-58 32.5l-23 13q-66 32 -66 76z" />
<glyph unicode="&#xc9;" horiz-adv-x="893" d="M59 0q58 27 58 89v1172q0 60 -56 90h722l2 -147q-41 47 -110 57q-23 4 -114.5 9.5t-117.5 5.5h-170v-489h333q20 0 41 18t30 39v-186q-8 21 -28.5 39t-40.5 18h-335v-624q117 -15 216 -13h11q188 0 253 18t115 105l-38 -201h-771zM340 1403q-3 3 11.5 24t37 49.5t46 56 t39.5 46.5l17 19q15 18 25 29.5t28.5 22.5t35.5 11q28 0 46 -19t18 -46q0 -44 -66 -76l-142 -79q-89 -46 -96 -38zM340 1403q3 -4 29 6.5t60.5 28.5t68.5 36.5t57 32.5l23 13q66 32 66 76q0 17 -8 32t-22 24t-32 9q-41 0 -91 -63l-100 -119q-57 -70 -51 -76zM340 1403 q-3 3 11.5 24t37 49.5t46 56t39.5 46.5l17 19q15 18 25 29.5t28.5 22.5t35.5 11q28 0 46 -19t18 -46q0 -44 -66 -76l-142 -79q-89 -46 -96 -38z" />
<glyph unicode="&#xca;" horiz-adv-x="893" d="M59 0q58 27 58 89v1172q0 60 -56 90h722l2 -147q-41 47 -110 57q-23 4 -114.5 9.5t-117.5 5.5h-170v-489h333q20 0 41 18t30 39v-186q-8 21 -28.5 39t-40.5 18h-335v-624q117 -15 216 -13h11q188 0 253 18t115 105l-38 -201h-771zM161 1403q-7 8 125.5 133t144.5 125 q14 0 146.5 -125t123.5 -133q-5 -6 -72 26t-132 66l-64 35l-168 -87q-98 -48 -104 -40z" />
<glyph unicode="&#xcb;" horiz-adv-x="893" d="M59 0q58 27 58 89v1172q0 60 -56 90h722l2 -147q-41 47 -110 57q-23 4 -114.5 9.5t-117.5 5.5h-170v-489h333q20 0 41 18t30 39v-186q-8 21 -28.5 39t-40.5 18h-335v-624q117 -15 216 -13h11q188 0 253 18t115 105l-38 -201h-771zM224 1520q0 17 7 32.5t18 27t27 18.5 t33 7q23 0 43 -11.5t32 -31.5t12 -42q0 -23 -12 -43t-32 -31t-43 -11q-36 0 -60.5 24t-24.5 61zM499 1520q0 35 24 60t59 25q23 0 43 -11.5t31 -31t11 -42.5q0 -36 -24.5 -60.5t-60.5 -24.5q-35 0 -59 24t-24 61z" />
<glyph unicode="&#xcc;" horiz-adv-x="452" d="M44 1596q0 26 19.5 45.5t46.5 19.5q42 0 89 -63l99 -119q56 -70 51 -76q-4 -4 -29.5 6.5t-59.5 28.5t-67.5 36.5t-56.5 32.5l-23 13q-69 34 -69 76zM64 0q53 26 53 89v1172q0 63 -53 90h264q-53 -26 -53 -90v-1172q0 -59 51 -89h-262z" />
<glyph unicode="&#xcd;" horiz-adv-x="450" d="M57 1403q-3 5 34.5 53.5t77.5 94.5l40 47q50 63 89 63q17 0 32.5 -9t24.5 -24t9 -32t-11.5 -33t-25.5 -25.5t-31 -17.5l-139 -77q-91 -48 -100 -40zM64 0q53 26 53 89v1172q0 63 -53 90h264q-53 -24 -53 -90v-1172q0 -61 51 -89h-262z" />
<glyph unicode="&#xce;" horiz-adv-x="450" d="M-70 1403q-7 8 127 133t144 125q8 0 77 -62t133.5 -126.5t60.5 -69.5q-3 -4 -32.5 7.5t-68.5 31t-77 39.5t-65 34l-26 15l-169 -87q-98 -48 -104 -40zM66 0q53 24 53 89v1172q0 63 -53 90h264q-52 -25 -52 -90v-1172q0 -63 52 -89h-264z" />
<glyph unicode="&#xcf;" horiz-adv-x="448" d="M-24 1520q0 34 24.5 59.5t58.5 25.5q23 0 43.5 -11.5t32.5 -31.5t12 -42q0 -35 -26 -60t-62 -25q-35 0 -59 24t-24 61zM61 0q54 26 54 89v1172q0 61 -54 90h265q-53 -26 -53 -90v-1172q0 -62 53 -89h-265zM248 1520q0 17 7 32.5t18 27t27 18.5t34 7q35 0 60 -25t25 -60 q0 -36 -25 -60.5t-60 -24.5t-60.5 24.5t-25.5 60.5z" />
<glyph unicode="&#xd0;" horiz-adv-x="1374" d="M-22 669v74h143v518q0 63 -53 90h476q136 0 249.5 -28t190 -72.5t135 -105.5t92 -121t54 -125.5t27.5 -112t7 -87.5q0 -66 -13.5 -134t-44 -137t-75 -131.5t-110 -117t-145.5 -94t-186 -62.5t-226 -23h-431q53 26 53 89v580h-143zM278 83q86 -5 256 -5q96 0 177 18.5 t140.5 51.5t106.5 79.5t78 100t51 116.5t28.5 125.5t8.5 129.5q0 55 -9 110.5t-29.5 112.5t-50.5 108t-75.5 96t-101.5 77.5t-131 51.5t-161 19q-19 0 -71 0.5t-86.5 0.5t-73 -1.5t-57.5 -3.5v-527h141v-72h-141v-588z" />
<glyph unicode="&#xd1;" horiz-adv-x="1300" d="M6 1351h236l812 -1013v923q0 63 -53 90h193q-53 -26 -53 -90v-1289q-944 1161 -944 1180v-1063q0 -62 55 -89h-191q54 28 54 89v1113q0 38 -2.5 48.5t-15.5 28.5q-21 26 -40.5 43t-50.5 29zM354 1452q2 9 15 26t35 36t48 36.5t57.5 29t60.5 11.5q30 0 110.5 -32.5 t110.5 -32.5q19 0 37 5t30 12t21 14t13 11l4 5l42 -26q-2 -2 -5.5 -6.5t-16 -16.5t-25.5 -23.5t-32 -25t-38 -23.5t-42.5 -16.5t-45.5 -6.5q-41 0 -87 18.5t-82.5 37.5t-53.5 19q-27 0 -55 -17t-43 -34l-14 -16z" />
<glyph unicode="&#xd2;" horiz-adv-x="1533" d="M14 675v20q3 94 35 189t95 182t147.5 154.5t201.5 108t248 40.5h23q98 -3 195.5 -33t187.5 -88t159 -137t110.5 -190t41.5 -237v-22q-3 -107 -35.5 -203t-86 -169t-123.5 -132.5t-149.5 -97t-162 -57.5t-162.5 -20h-18q-111 3 -216.5 37.5t-193.5 97t-155 145 t-104.5 189.5t-37.5 223zM195 703q0 -92 17 -173.5t47 -145.5t71 -117t89 -90t102 -63t108.5 -38t109.5 -12q116 0 215 42.5t169 119.5t109.5 187.5t39.5 242.5q0 81 -13 155.5t-37.5 138t-60 117.5t-81 95.5t-98.5 71t-114.5 44.5t-128.5 15q-116 0 -215.5 -41 t-172.5 -115.5t-114.5 -186.5t-41.5 -247zM548 1596q0 27 18.5 46t45.5 19q17 0 34.5 -11t28 -22.5t24.5 -29.5q154 -174 154 -193v-2h-5q-14 0 -72 29t-110 59l-52 29q-27 12 -46.5 31.5t-19.5 44.5z" />
<glyph unicode="&#xd3;" horiz-adv-x="1533" d="M14 675v20q3 94 35 189t95 182t147.5 154.5t201.5 108t248 40.5h23q98 -3 195.5 -33t187.5 -88t159 -137t110.5 -190t41.5 -237v-22q-3 -107 -35.5 -203t-86 -169t-123.5 -132.5t-149.5 -97t-162 -57.5t-162.5 -20h-18q-111 3 -216.5 37.5t-193.5 97t-155 145 t-104.5 189.5t-37.5 223zM195 703q0 -92 17 -173.5t47 -145.5t71 -117t89 -90t102 -63t108.5 -38t109.5 -12q116 0 215 42.5t169 119.5t109.5 187.5t39.5 242.5q0 81 -13 155.5t-37.5 138t-60 117.5t-81 95.5t-98.5 71t-114.5 44.5t-128.5 15q-116 0 -215.5 -41 t-172.5 -115.5t-114.5 -186.5t-41.5 -247zM622 1403v2q0 5 15.5 27t37.5 49t44.5 54t38.5 45l15 18l27 30t27.5 21.5t34.5 11.5q14 0 26.5 -5.5t21.5 -14t14 -20.5t5 -25q0 -43 -69 -76q-204 -117 -234 -117h-4z" />
<glyph unicode="&#xd4;" horiz-adv-x="1533" d="M14 675v20q3 94 35 189t95 182t147.5 154.5t201.5 108t248 40.5h23q98 -3 195.5 -33t187.5 -88t159 -137t110.5 -190t41.5 -237v-22q-3 -107 -35.5 -203t-86 -169t-123.5 -132.5t-149.5 -97t-162 -57.5t-162.5 -20h-18q-111 3 -216.5 37.5t-193.5 97t-155 145 t-104.5 189.5t-37.5 223zM195 703q0 -92 17 -173.5t47 -145.5t71 -117t89 -90t102 -63t108.5 -38t109.5 -12q116 0 215 42.5t169 119.5t109.5 187.5t39.5 242.5q0 81 -13 155.5t-37.5 138t-60 117.5t-81 95.5t-98.5 71t-114.5 44.5t-128.5 15q-116 0 -215.5 -41 t-172.5 -115.5t-114.5 -186.5t-41.5 -247zM469 1403q0 13 130 135.5t140 122.5q9 0 76 -60t131.5 -124t64.5 -74h-4q-14 0 -80.5 31.5t-126.5 63.5l-59 32q-235 -127 -269 -127h-3z" />
<glyph unicode="&#xd5;" horiz-adv-x="1533" d="M14 675v20q3 94 35 189t95 182t147.5 154.5t201.5 108t248 40.5h23q98 -3 195.5 -33t187.5 -88t159 -137t110.5 -190t41.5 -237v-22q-3 -107 -35.5 -203t-86 -169t-123.5 -132.5t-149.5 -97t-162 -57.5t-162.5 -20h-18q-111 3 -216.5 37.5t-193.5 97t-155 145 t-104.5 189.5t-37.5 223zM195 703q0 -92 17 -173.5t47 -145.5t71 -117t89 -90t102 -63t108.5 -38t109.5 -12q116 0 215 42.5t169 119.5t109.5 187.5t39.5 242.5q0 81 -13 155.5t-37.5 138t-60 117.5t-81 95.5t-98.5 71t-114.5 44.5t-128.5 15q-116 0 -215.5 -41 t-172.5 -115.5t-114.5 -186.5t-41.5 -247zM453 1452q2 9 15.5 26t35.5 36t48 36.5t58 29t61 11.5q30 0 110 -32.5t109 -32.5q20 0 38 5t29 12t20 14t12 11l4 5l44 -26q-11 -13 -30.5 -32.5t-73.5 -52.5t-101 -33q-42 0 -88.5 18.5t-82 37.5t-51.5 19q-27 0 -56 -17t-44 -34 l-15 -16z" />
<glyph unicode="&#xd6;" horiz-adv-x="1533" d="M14 675v20q3 94 35 189t95 182t147.5 154.5t201.5 108t248 40.5h23q98 -3 195.5 -33t188 -88t160 -137t111 -190t41.5 -237v-22q-4 -128 -49.5 -239.5t-118.5 -190.5t-165 -136.5t-191 -85t-195 -27.5h-18q-112 3 -217.5 37.5t-194 97t-155.5 145t-104.5 189.5t-37.5 223 zM195 703q0 -91 17 -173t47 -146t71.5 -117t89.5 -90t102 -63t108.5 -38t108.5 -12q156 0 277 73t188.5 208t67.5 311h2q0 113 -25.5 213t-73 177t-112.5 133t-147.5 85t-176.5 29q-116 0 -215.5 -41t-172.5 -115.5t-114.5 -186.5t-41.5 -247zM523 1520q0 35 24 60t59 25 q34 0 60 -25.5t26 -59.5q0 -35 -25.5 -60t-60.5 -25q-17 0 -32.5 6t-26.5 17.5t-17.5 27.5t-6.5 34zM792 1520q0 34 26 59.5t60 25.5q35 0 60 -25t25 -60q0 -36 -24 -60.5t-59 -24.5q-36 0 -62 24t-26 61z" />
<glyph unicode="&#xd7;" horiz-adv-x="1020" d="M59 383l328 330l-328 328l88 91l330 -332l325 330l94 -87l-330 -330l330 -330l-94 -87l-325 328l-330 -328z" />
<glyph unicode="&#xd8;" horiz-adv-x="1533" d="M16 695q2 68 19.5 137.5t51.5 136.5t81 127.5t110.5 111.5t137 87.5t164 56t187.5 17.5q66 -2 133 -17t133 -42.5t125 -65.5q62 74 84 107h105q-23 -27 -130 -151q117 -95 183 -231t62 -307q-4 -109 -37.5 -206.5t-89 -171.5t-127.5 -133t-153 -96t-165 -55.5t-164 -16.5 q-238 8 -426 144q-71 -87 -97 -127h-110q34 42 149 175q-109 99 -170 232.5t-56 287.5zM197 703q0 -262 131 -428q526 601 760 883q-140 135 -347 135q-116 0 -215.5 -41t-172.5 -115.5t-114.5 -186.5t-41.5 -247zM375 218q52 -51 114 -86.5t125 -51.5t127 -16q156 0 277 73 t189 208t69 311q0 270 -140 449q-45 -52 -230.5 -266t-311.5 -361t-219 -260z" />
<glyph unicode="&#xd9;" horiz-adv-x="1183" d="M48 1351h286q-66 -32 -66 -90v-844q0 -32 3.5 -62.5t13 -66.5t25 -67t42 -60.5t61 -50.5t85 -33.5t110.5 -12.5q68 0 123.5 13.5t94.5 38t67 56.5t43.5 72t23 81t7.5 86l-6 850q0 62 -51 90h197q-53 -24 -53 -90l-9 -844q-1 -93 -26 -167t-66.5 -123.5t-100 -82.5 t-123.5 -47t-139 -14q-67 0 -131 13.5t-128 46t-112 81t-77.5 125t-29.5 170.5v842q0 55 -64 90zM398 1596q0 26 19.5 45.5t45.5 19.5q45 0 89 -63l100 -119q56 -70 51 -76q-2 -3 -16.5 2t-35.5 15t-46 23t-49 26.5t-44.5 25t-32.5 18.5l-12 7q-28 13 -48.5 32t-20.5 44z " />
<glyph unicode="&#xda;" horiz-adv-x="1183" d="M44 1351h286q-64 -31 -64 -90v-844q0 -32 3.5 -62.5t13 -66.5t25 -67t42 -60.5t61 -50.5t84 -33.5t109.5 -12.5q82 0 145 19.5t103 52t65.5 78.5t35.5 94t10 103l-4 850q0 62 -51 90h195q-52 -25 -52 -90l-10 -844q-1 -93 -25.5 -167t-66 -123.5t-100 -82.5t-123.5 -47 t-140 -14q-66 0 -130 13.5t-127.5 46t-111.5 81t-77.5 125t-29.5 170.5v842q0 56 -66 90zM497 1403q-3 3 11.5 24t37 49.5t45 56t39.5 46.5l16 19q50 63 89 63q13 0 25.5 -5.5t21 -14t13.5 -20.5t5 -25q0 -25 -19.5 -44.5t-47.5 -31.5l-140 -78q-88 -46 -96 -39z" />
<glyph unicode="&#xdb;" horiz-adv-x="1187" d="M44 1351h288q-66 -30 -66 -90v-844q0 -32 3.5 -62.5t13 -66.5t25 -67t42 -60.5t61 -50.5t84 -33.5t109.5 -12.5q82 0 145 19.5t103 52t65.5 78.5t35.5 94t10 103l-4 850q0 62 -51 90h195q-52 -25 -52 -90l-10 -844q-1 -93 -25.5 -167t-66 -123.5t-99.5 -82.5t-123 -47 t-139 -14q-67 0 -131 13.5t-128 46t-112 81t-77.5 125t-29.5 170.5v842q0 56 -66 90zM332 1403q-7 8 126.5 133t143.5 125q14 0 147 -125t127 -133q-4 -4 -33.5 7.5t-68.5 31t-77.5 39.5t-65.5 34l-27 15l-160 -84q-104 -51 -112 -43z" />
<glyph unicode="&#xdc;" horiz-adv-x="1183" d="M44 1351h286q-64 -31 -64 -90v-844q0 -32 3.5 -62.5t13 -66.5t25 -67t42 -60.5t61 -50.5t84 -33.5t109.5 -12.5q82 0 145 19.5t103 52t65.5 78.5t35.5 94t10 103l-4 850q0 62 -51 90h195q-52 -25 -52 -90l-10 -844q-1 -93 -25.5 -167t-66 -123.5t-100 -82.5t-123.5 -47 t-140 -14q-66 0 -130 13.5t-127.5 46t-111.5 81t-77.5 125t-29.5 170.5v842q0 56 -66 90zM394 1520q0 35 24 60t59 25q34 0 60 -25.5t26 -59.5q0 -35 -25.5 -60t-60.5 -25q-23 0 -42 11t-30 30.5t-11 43.5zM663 1520q0 34 26 59.5t60 25.5q23 0 43 -11.5t31 -31t11 -42.5 q0 -36 -24 -60.5t-59 -24.5q-36 0 -62 24t-26 61z" />
<glyph unicode="&#xdd;" horiz-adv-x="903" d="M-147 1351h354q-2 0 -9.5 -3.5t-9.5 -4t-8 -3.5t-8 -4.5t-7 -4.5t-6.5 -5t-4.5 -5.5t-4 -7t-2 -7.5t-1 -9q0 -23 26 -69l294 -495l272 522q16 26 16 48q0 17 -13 28t-41 20h239q-42 -19 -68.5 -43t-45.5 -59l-322 -603v-557q0 -52 72 -89h-308q73 36 73 89v548l-373 618 q-22 35 -46.5 54.5t-68.5 41.5zM405 1412v2q0 5 8.5 18t21.5 30.5t29 37t31.5 38.5t29 34.5t21.5 25.5l8 9q17 20 27 30.5t29 21.5t36 11q27 0 45 -19t18 -46q0 -44 -65 -75q-203 -118 -235 -118h-4z" />
<glyph unicode="&#xde;" horiz-adv-x="933" d="M61 0q56 27 56 89v1172q0 63 -53 90h264q-53 -26 -53 -90v-198h132q83 0 153 -12.5t120 -34t89 -51.5t63.5 -62.5t40.5 -69.5t22.5 -71t6.5 -68q0 -62 -19 -117.5t-46 -92.5t-62 -68.5t-60 -47.5t-48 -27q-27 -12 -68 -23t-94.5 -17.5t-116 1.5t-115.5 32v-245 q0 -61 55 -89h-267zM273 385q38 -15 104 -15q27 0 54 2.5t63.5 11t68.5 22t64 38t55 56.5t37 80.5t14 107.5q0 146 -81.5 224.5t-234.5 78.5q-47 0 -83 -1t-49 -2l-12 -1v-602z" />
<glyph unicode="&#xdf;" horiz-adv-x="1006" d="M40 0q27 13 38 27.5t11 46.5v910q0 51 9.5 100t36 102t67.5 92.5t109.5 65t157.5 25.5q91 0 166 -36t120 -104.5t45 -157.5q0 -109 -73.5 -195.5t-192.5 -122.5q56 -4 112 -21t108 -49.5t92 -76t64 -103.5t24 -128q0 -54 -16 -107.5t-52.5 -105t-90.5 -90.5t-136.5 -63.5 t-183.5 -24.5h-55q-92 0 -114 8v69q39 -4 65 -4q37 0 74.5 4t80.5 14.5t80.5 27t73 42.5t61 59.5t41 81t15.5 103.5q0 70 -23 125.5t-61 90t-91 57.5t-108 32t-117 9q-7 0 -23.5 -1t-25.5 -1v78q155 8 241.5 85.5t86.5 198.5q0 93 -63 165.5t-152 72.5q-31 0 -58.5 -8 t-47.5 -22.5t-36.5 -33.5t-27 -42.5t-18.5 -47t-12 -49.5t-6 -48.5t-2 -44.5v-1005h-193z" />
<glyph unicode="&#xe0;" d="M8 222q0 144 131 225q43 26 136 54t172 54.5t105 54.5v82q0 32 -9 62t-28 56.5t-54.5 42t-83.5 15.5q-50 0 -91 -14.5t-69 -37.5t-52.5 -60.5t-40.5 -74.5t-33 -89l-6 238q5 4 15 11q34 23 54 35t56.5 28.5t80 24t96.5 7.5q39 0 76 -5.5t80 -22.5t74.5 -44t53 -75 t21.5 -110v-544q0 -3 -0.5 -14.5t0 -14.5t1 -12t2 -12t4.5 -10t7.5 -9.5t10.5 -6.5t14.5 -6.5t19.5 -3.5l-127 -65q-26 18 -38.5 32t-20.5 43.5t-9 78.5q-36 -40 -76.5 -71t-105 -56t-132.5 -25q-50 0 -91.5 17t-67 43.5t-43.5 60t-25 63t-7 55.5zM149 254q0 -54 18.5 -92.5 t53.5 -58.5t85 -20q141 0 248 116l2 328q-23 -12 -50.5 -22.5t-47.5 -17t-62 -19.5t-66 -21q-86 -29 -133.5 -73.5t-47.5 -119.5zM178 1186q0 29 18 47t46 18q43 0 92 -61l98 -118q55 -70 51 -77q-3 -4 -29 6.5t-60.5 28.5t-68.5 36t-57 31l-24 14q-25 10 -45.5 30t-20.5 45 z" />
<glyph unicode="&#xe1;" d="M8 222q0 144 131 225q43 26 136 54t172 54.5t105 54.5v82q0 32 -9 62t-28 56.5t-54.5 42t-83.5 15.5q-50 0 -91 -14.5t-69 -37.5t-52.5 -60.5t-40.5 -74.5t-33 -89l-6 238q5 4 15 11q34 23 54 35t56.5 28.5t80 24t96.5 7.5q39 0 76 -5.5t80 -22.5t74.5 -44t53 -75 t21.5 -110v-544q0 -3 -0.5 -14.5t0 -14.5t1 -12t2 -12t4.5 -10t7.5 -9.5t10.5 -6.5t14.5 -6.5t19.5 -3.5l-127 -65q-26 18 -38.5 32t-20.5 43.5t-9 78.5q-36 -40 -76.5 -71t-105 -56t-132.5 -25q-50 0 -91.5 17t-67 43.5t-43.5 60t-25 63t-7 55.5zM149 254q0 -54 18.5 -92.5 t53.5 -58.5t85 -20q141 0 248 116l2 328q-23 -12 -50.5 -22.5t-47.5 -17t-62 -19.5t-66 -21q-86 -29 -133.5 -73.5t-47.5 -119.5zM260 995q-3 3 11 24.5t36 49t45 55t39 45.5l16 19q47 63 92 63q26 0 45 -18.5t19 -46.5q0 -44 -66 -75l-145 -79q-86 -44 -92 -37z" />
<glyph unicode="&#xe2;" d="M8 222q0 144 131 225q43 26 136 54t172 54.5t105 54.5v82q0 32 -9 62t-28 56.5t-54.5 42t-83.5 15.5q-50 0 -91 -14.5t-69 -37.5t-52.5 -60.5t-40.5 -74.5t-33 -89l-6 238q5 4 15 11q34 23 54 35t56.5 28.5t80 24t96.5 7.5q39 0 76 -5.5t80 -22.5t74.5 -44t53 -75 t21.5 -110v-544q0 -3 -0.5 -14.5t0 -14.5t1 -12t2 -12t4.5 -10t7.5 -9.5t10.5 -6.5t14.5 -6.5t19.5 -3.5l-127 -65q-26 18 -38.5 32t-20.5 43.5t-9 78.5q-36 -40 -76.5 -71t-105 -56t-132.5 -25q-50 0 -91.5 17t-67 43.5t-43.5 60t-25 63t-7 55.5zM108 995q-8 8 124 132 t143 124q13 0 146.5 -123.5t126.5 -132.5q-4 -4 -33.5 7.5t-68.5 31l-78 39t-66 33.5l-27 14l-164 -85q-96 -46 -103 -40zM149 254q0 -54 18.5 -92.5t53.5 -58.5t85 -20q141 0 248 116l2 328q-23 -12 -50.5 -22.5t-47.5 -17t-62 -19.5t-66 -21q-86 -29 -133.5 -73.5 t-47.5 -119.5z" />
<glyph unicode="&#xe3;" d="M8 222q0 144 131 225q43 26 136 54t172 54.5t105 54.5v82q0 32 -9 62t-28 56.5t-54.5 42t-83.5 15.5q-50 0 -91 -14.5t-69 -37.5t-52.5 -60.5t-40.5 -74.5t-33 -89l-6 238q5 4 15 11q34 23 54 35t56.5 28.5t80 24t96.5 7.5q39 0 76 -5.5t80 -22.5t74.5 -44t53 -75 t21.5 -110v-544q0 -3 -0.5 -14.5t0 -14.5t1 -12t2 -12t4.5 -10t7.5 -9.5t10.5 -6.5t14.5 -6.5t19.5 -3.5l-127 -65q-26 18 -38.5 32t-20.5 43.5t-9 78.5q-36 -40 -76.5 -71t-105 -56t-132.5 -25q-50 0 -91.5 17t-67 43.5t-43.5 60t-25 63t-7 55.5zM101 1052q1 8 10.5 20.5 t23.5 27.5t34 30t42 27t47.5 19.5t48.5 7.5q28 0 104.5 -31t104.5 -31q30 0 55.5 11t36.5 22l10 11l40 -21q-4 -5 -11 -12.5t-29 -26.5t-44 -34t-53 -27t-58 -12q-40 0 -84.5 17.5t-79 35t-51.5 17.5q-24 0 -50.5 -16t-40.5 -32l-14 -16zM149 254q0 -54 18.5 -92.5 t53.5 -58.5t85 -20q141 0 248 116l2 328q-23 -12 -50.5 -22.5t-47.5 -17t-62 -19.5t-66 -21q-86 -29 -133.5 -73.5t-47.5 -119.5z" />
<glyph unicode="&#xe4;" d="M8 222q0 144 131 225q43 26 136 54t172 54.5t105 54.5v82q0 32 -9 62t-28 56.5t-54.5 42t-83.5 15.5q-50 0 -91 -14.5t-69 -37.5t-52.5 -60.5t-40.5 -74.5t-33 -89l-6 238q5 4 15 11q34 23 54 35t56.5 28.5t80 24t96.5 7.5q39 0 76 -5.5t80 -22.5t74.5 -44t53 -75 t21.5 -110v-544q0 -3 -0.5 -14.5t0 -14.5t1 -12t2 -12t4.5 -10t7.5 -9.5t10.5 -6.5t14.5 -6.5t19.5 -3.5l-127 -65q-26 18 -38.5 32t-20.5 43.5t-9 78.5q-36 -40 -76.5 -71t-105 -56t-132.5 -25q-50 0 -91.5 17t-67 43.5t-43.5 60t-25 63t-7 55.5zM149 254q0 -54 18.5 -92.5 t53.5 -58.5t85 -20q141 0 248 116l2 328q-23 -12 -50.5 -22.5t-47.5 -17t-62 -19.5t-66 -21q-86 -29 -133.5 -73.5t-47.5 -119.5zM161 1118q0 35 24.5 59.5t59 24.5t59 -24t24.5 -58q0 -36 -24.5 -61.5t-59 -25.5t-59 25t-24.5 60zM431 1118q0 35 24.5 59.5t58.5 24.5 q35 0 60 -24t25 -58q0 -36 -25 -61.5t-60 -25.5q-34 0 -58.5 25t-24.5 60z" />
<glyph unicode="&#xe5;" d="M8 222q0 144 131 225q43 26 136 54t172 54.5t105 54.5v82q0 32 -9 62t-28 56.5t-54.5 42t-83.5 15.5q-50 0 -91 -14.5t-69 -37.5t-52.5 -60.5t-40.5 -74.5t-33 -89l-6 238q5 4 15 11q34 23 54 35t56.5 28.5t80 24t96.5 7.5q39 0 76 -5.5t80 -22.5t74.5 -44t53 -75 t21.5 -110v-544q0 -3 -0.5 -14.5t0 -14.5t1 -12t2 -12t4.5 -10t7.5 -9.5t10.5 -6.5t14.5 -6.5t19.5 -3.5l-127 -65q-26 18 -38.5 32t-20.5 43.5t-9 78.5q-36 -40 -76.5 -71t-105 -56t-132.5 -25q-50 0 -91.5 17t-67 43.5t-43.5 60t-25 63t-7 55.5zM149 254q0 -54 18.5 -92.5 t53.5 -58.5t85 -20q136 0 250 114v330q-23 -12 -50.5 -22.5t-47.5 -17t-62 -19.5t-66 -21q-86 -29 -133.5 -73.5t-47.5 -119.5zM256 1122q0 52 37.5 90.5t87.5 38.5q51 0 90 -38.5t39 -90.5q0 -50 -39 -88.5t-90 -38.5q-50 0 -87.5 37.5t-37.5 89.5zM296 1122q0 -37 24 -62 t61 -25q25 0 44.5 11.5t30.5 31.5t11 44t-11 43t-30.5 30t-44.5 11q-36 0 -60.5 -24t-24.5 -60z" />
<glyph unicode="&#xe6;" horiz-adv-x="1390" d="M2 222q0 142 133 225q42 26 134 53.5t170.5 54t104.5 55.5v87q0 30 -9.5 57t-29 51t-54.5 38.5t-79 14.5q-43 0 -78 -9t-62.5 -28t-48.5 -42t-39.5 -56.5t-32 -64.5t-28.5 -74l-3 237q4 3 13 9q32 25 51.5 37t55 29t79 24t98.5 7q36 0 69.5 -7t57 -18t46.5 -23.5t39 -23 t33.5 -18t31.5 -7.5q18 0 39 10t44.5 24.5t53.5 28.5t79 24t110 10q49 0 97 -13.5t95 -44.5t83 -76.5t58 -114t22 -151.5h-647q0 -9 -2 -28.5t-2 -28.5q0 -110 35.5 -197t110 -140t177.5 -53q99 0 196 69t130 145q-5 -60 -34 -117t-76 -102t-114.5 -72t-141.5 -27 q-73 0 -131.5 18t-93 44t-60.5 51.5t-46 43.5t-37 18q-15 0 -37 -17t-50 -42t-63 -50t-91 -42t-121 -17q-51 0 -92.5 17t-67 43.5t-43.5 60t-25 63t-7 55.5zM141 254q0 -81 43 -126t118 -45q148 0 225 131q21 37 21 223v90q-22 -12 -49 -22.5t-45.5 -17t-62 -20t-65.5 -20.5 q-87 -29 -136 -73.5t-49 -119.5zM692 590h488v-2q0 75 -20 130t-54.5 85t-74.5 43.5t-87 13.5q-58 0 -103.5 -22t-74.5 -61.5t-47.5 -85.5t-26.5 -101z" />
<glyph unicode="&#xe7;" horiz-adv-x="817" d="M19 455q0 61 16 125t52 128.5t87 114.5t128.5 81.5t169.5 31.5q53 0 117 -19t101 -38l38 -19v-254q-34 117 -108.5 190.5t-166.5 73.5q-58 0 -107 -24t-81.5 -63.5t-55 -90.5t-32.5 -104t-10 -105q0 -77 20 -147.5t58.5 -126.5t100.5 -89t139 -33q43 0 83 9.5t67.5 22 t56 32t43 32.5t32.5 31q-2 -19 -14 -46.5t-38.5 -60t-62 -59.5t-90 -45.5t-117.5 -18.5h-40l-28 -64q21 0 43.5 -2.5t53.5 -12.5t54.5 -26t40.5 -46.5t17 -71.5q0 -69 -54 -112t-141 -43q-122 0 -156 114q53 -37 82.5 -52t54.5 -15q53 0 87 31t34 75t-31 73t-73 29 q-29 0 -53 -10.5t-54 -34.5l91 172q-70 11 -129.5 44.5t-100.5 80.5t-69 105t-41.5 118t-13.5 119z" />
<glyph unicode="&#xe8;" horiz-adv-x="893" d="M19 453q0 63 17 129t54 129.5t88 113.5t126.5 80.5t164.5 30.5q47 0 95.5 -13.5t96 -45t84 -77t59 -114.5t22.5 -152h-646q0 -4 -1 -15.5t-1 -16.5v-53q4 -104 41 -184.5t109.5 -129t172.5 -48.5t196.5 68.5t126.5 146.5q-3 -61 -32 -119t-76.5 -102t-114 -71t-140.5 -27 q-83 0 -155 27.5t-123.5 74.5t-89 107.5t-56 127t-18.5 133.5zM184 598h489v-2q0 74 -19 129.5t-52 86.5t-72.5 45.5t-86.5 14.5q-45 0 -84.5 -15.5t-68 -41t-50.5 -61.5t-35.5 -74.5t-20.5 -81.5zM286 1186q0 29 18.5 47t46.5 18q40 0 88 -61l97 -114q59 -73 54 -81 q-4 -4 -29.5 6.5t-59.5 28.5t-67.5 36t-56.5 31l-23 14q-68 30 -68 75z" />
<glyph unicode="&#xe9;" horiz-adv-x="895" d="M19 453q0 63 17 129t54 129.5t88 113.5t126.5 80.5t164.5 30.5q47 0 95.5 -13.5t96 -45t84 -77t59 -114.5t22.5 -152h-646q0 -4 -1 -15.5t-1 -16.5v-53q4 -104 41 -184.5t109.5 -129t172.5 -48.5t196.5 68.5t126.5 146.5q-3 -61 -32 -119t-76.5 -102t-114 -71t-140.5 -27 q-83 0 -155 27.5t-123.5 74.5t-89 107.5t-56 127t-18.5 133.5zM184 598h489v-2q0 74 -19 129.5t-52 86.5t-72.5 45.5t-86.5 14.5q-45 0 -84.5 -15.5t-68 -41t-50.5 -61.5t-35.5 -74.5t-20.5 -81.5zM312 995q-4 5 32.5 53.5t75.5 94.5l39 45q51 63 89 63q29 0 48.5 -18.5 t19.5 -46.5q0 -43 -68 -75l-144 -79q-85 -44 -92 -37z" />
<glyph unicode="&#xea;" horiz-adv-x="893" d="M19 453q0 63 17 129t54 129.5t88 113.5t126.5 80.5t164.5 30.5q47 0 95.5 -13.5t96 -45t84 -77t59 -114.5t22.5 -152h-646q0 -4 -1 -15.5t-1 -16.5v-53q4 -104 41 -184.5t109.5 -129t172.5 -48.5t196.5 68.5t126.5 146.5q-3 -61 -32 -119t-76.5 -102t-114 -71t-140.5 -27 q-83 0 -155 27.5t-123.5 74.5t-89 107.5t-56 127t-18.5 133.5zM177 995q-7 8 127 132t145 124t144 -124t128 -132q-4 -4 -33.5 7.5t-68.5 31l-78 39t-65 33.5l-27 14l-169 -85q-97 -47 -103 -40zM184 598h489v-2q0 74 -19 129.5t-52 86.5t-72.5 45.5t-86.5 14.5 q-45 0 -84.5 -15.5t-68 -41t-50.5 -61.5t-35.5 -74.5t-20.5 -81.5z" />
<glyph unicode="&#xeb;" horiz-adv-x="893" d="M19 453q0 63 17 129t54 129.5t88 113.5t126.5 80.5t164.5 30.5q47 0 95.5 -13.5t96 -45t84 -77t59 -114.5t22.5 -152h-646q0 -4 -1 -15.5t-1 -16.5v-53q4 -104 41 -184.5t109.5 -129t172.5 -48.5t196.5 68.5t126.5 146.5q-3 -61 -32 -119t-76.5 -102t-114 -71t-140.5 -27 q-83 0 -155 27.5t-123.5 74.5t-89 107.5t-56 127t-18.5 133.5zM184 598h489v-2q0 74 -19 129.5t-52 86.5t-72.5 45.5t-86.5 14.5q-45 0 -84.5 -15.5t-68 -41t-50.5 -61.5t-35.5 -74.5t-20.5 -81.5zM222 1118q0 35 24 59.5t59.5 24.5t59.5 -23.5t24 -58.5q0 -36 -24.5 -61.5 t-58.5 -25.5q-36 0 -60 25t-24 60zM491 1118q0 34 25.5 59t60 25t59 -24t24.5 -58q0 -37 -24 -62t-58 -25q-35 0 -61 25t-26 60z" />
<glyph unicode="&#xec;" horiz-adv-x="394" d="M-14 1186q0 28 19 46.5t46 18.5q41 0 90 -61l100 -118q55 -70 51 -77q-4 -4 -30 6.5t-60.5 28.5t-68 36t-56.5 31l-24 14q-67 30 -67 75zM32 886l210 50v-860q0 -31 12.5 -45.5t41.5 -30.5h-247q28 13 41 28.5t13 45.5v735q0 9 -1.5 17t-2.5 13.5t-5.5 11t-6 9t-8 7.5 t-8 5t-9.5 4t-9 3.5t-11 3.5z" />
<glyph unicode="&#xed;" horiz-adv-x="394" d="M16 995q-4 3 10 24.5t36.5 49l45 55t39.5 45.5l16 19q15 19 26.5 30.5t28.5 22t34 10.5q28 0 48 -18.5t20 -46.5q0 -42 -70 -75l-142 -79q-86 -44 -92 -37zM32 886l210 50v-860q0 -31 12.5 -45.5t41.5 -30.5h-247q28 13 41 28.5t13 45.5v735q0 9 -1.5 17t-2.5 13.5 t-5.5 11t-6 9t-8 7.5t-8 5t-9.5 4t-9 3.5t-11 3.5z" />
<glyph unicode="&#xee;" horiz-adv-x="394" d="M-95 995q-7 8 126.5 132t143.5 124q14 0 147 -123.5t125 -132.5q-6 -5 -73.5 26.5t-132.5 64.5l-64 34l-164 -84q-101 -48 -108 -41zM32 886l210 50v-860q0 -31 12.5 -45.5t41.5 -30.5h-247q29 13 41.5 28t12.5 46v735q0 9 -1.5 17t-2.5 13.5t-5.5 11t-6 9t-8 7.5t-8 5 t-9.5 4t-9 3.5t-11 3.5z" />
<glyph unicode="&#xef;" horiz-adv-x="394" d="M-55 1118q0 35 24.5 59.5t59 24.5t59 -24t24.5 -58q0 -36 -24.5 -61.5t-59.5 -25.5t-59 25t-24 60zM30 886l211 50v-860q0 -32 12.5 -46t42.5 -30h-248q28 13 40.5 28t12.5 46v735q0 20 -5 34t-16 22t-19 11t-24 8q-5 1 -7 2zM214 1118q0 35 25 59.5t59 24.5t58.5 -24 t24.5 -58q0 -37 -23.5 -62t-57.5 -25q-36 0 -61 25t-25 60z" />
<glyph unicode="&#xf0;" horiz-adv-x="937" d="M17 461q1 68 19.5 136t55.5 129t87 108t118.5 74.5t145.5 27.5q50 0 92 -10t66.5 -24.5t42.5 -29t24 -24.5l7 -10q-11 70 -42.5 148t-78.5 144l-236 -63v72l186 49q-107 111 -242 111q-78 0 -112 -9.5t-84 -38.5q16 43 89.5 81t164.5 37q179 0 317 -145l193 53v-73 l-142 -38q84 -112 131 -259.5t47 -300.5q0 -301 -115.5 -462t-313.5 -160q-86 0 -157.5 29.5t-119 77t-80.5 110t-48 128t-15 132.5zM169 447q3 -77 22 -147.5t53 -127t86 -90t115 -33.5h10q63 3 113 36.5t80 88t45.5 122t15.5 141.5v33q-4 77 -22.5 146.5t-51 128t-85 93 t-117.5 34.5h-10q-64 -3 -114 -37.5t-80 -91.5t-45 -125t-15 -144v-27z" />
<glyph unicode="&#xf1;" horiz-adv-x="957" d="M32 888l210 48v-147q18 19 44 41.5t63.5 47.5t84.5 41.5t93 16.5q53 0 104.5 -18.5t93 -51.5t67 -85.5t25.5 -115.5v-589q0 -22 7 -36.5t16 -22t28 -17.5h-242q28 13 40.5 28t12.5 46v520q0 38 -6 70.5t-21.5 64.5t-40 54t-64.5 35.5t-92 13.5q-32 0 -64.5 -10 t-59.5 -26.5t-49 -34.5t-40 -38v-647q0 -32 12 -46.5t42 -29.5h-247q28 13 40 28t12 46v735q0 22 -5 36.5t-17 22.5t-20.5 11.5t-26.5 8.5zM193 1052q1 8 10 20.5t23 27.5t34 30t41.5 27t47 19.5t49.5 7.5q27 0 104 -31t104 -31q30 0 54.5 11t34.5 22l10 11l40 -21 q-2 -3 -5.5 -7t-15 -15.5t-23.5 -22t-30.5 -23.5t-36.5 -22t-39.5 -15.5t-42.5 -6.5q-39 0 -83.5 17.5t-79 35t-49.5 17.5q-27 0 -54 -16t-41 -32l-14 -16z" />
<glyph unicode="&#xf2;" horiz-adv-x="938" d="M19 461q1 68 19.5 136t55.5 129t87 107.5t118.5 74t145.5 26.5q86 0 157 -27.5t119 -74t81.5 -108.5t48 -129.5t13.5 -137.5q0 -67 -19.5 -135t-57 -129t-87.5 -107.5t-118 -74t-143 -27.5q-86 0 -157.5 29.5t-119 77t-80.5 110t-48 128t-15 132.5zM171 447 q3 -78 23 -149.5t54.5 -128t89 -89.5t119.5 -31q67 4 118.5 41t81.5 96.5t44 132.5t10 153v-2q-4 79 -23 149.5t-53 129.5t-88.5 92.5t-122 30.5t-119 -40.5t-80.5 -98.5t-43 -133.5t-11 -152.5zM262 1186q0 29 18.5 47t47.5 18q39 0 87 -61l97 -114q60 -73 54 -81 q-3 -4 -29 6.5t-60 28.5t-67.5 36t-56.5 31l-23 14q-68 30 -68 75z" />
<glyph unicode="&#xf3;" horiz-adv-x="937" d="M16 461q0 69 18.5 137t55.5 129t87 107.5t118.5 73.5t145.5 26q87 0 158.5 -27.5t119.5 -74t81.5 -108.5t48 -129.5t13.5 -137.5q0 -67 -19 -135t-56.5 -128.5t-88 -107.5t-118.5 -74.5t-143 -27.5q-86 0 -158 29.5t-120 77t-81.5 110t-48 128.5t-13.5 132zM169 447 q3 -78 22.5 -149.5t54.5 -128t89 -89.5t120 -31q67 4 118 41t81 96.5t43.5 132.5t9.5 153v-2q-4 78 -23 149t-53 130t-88 92.5t-120 30.5q-68 -3 -119.5 -40.5t-80.5 -98.5t-42.5 -133.5t-11.5 -152.5zM302 995q-5 5 33 53.5t78 94.5l40 45q47 63 89 63q28 0 47 -18.5 t19 -46.5q0 -43 -68 -75l-142 -78q-89 -45 -96 -38z" />
<glyph unicode="&#xf4;" horiz-adv-x="938" d="M19 461q1 68 19.5 136t55.5 129t87 107.5t118.5 74t145.5 26.5q86 0 157 -27.5t119 -74t81.5 -108.5t48 -129.5t13.5 -137.5q0 -67 -19.5 -135t-57 -129t-87.5 -107.5t-118 -74t-143 -27.5q-86 0 -157.5 29.5t-119 77t-80.5 110t-48 128t-15 132.5zM169 995q-7 8 126 132 t144 124q14 0 146 -123.5t126 -132.5q-3 -3 -19.5 2.5t-40 16.5t-52 25t-56.5 28t-50.5 26t-36.5 20l-15 7l-168 -85q-98 -47 -104 -40zM171 447q3 -78 23 -149.5t54.5 -128t89 -89.5t119.5 -31q67 4 118.5 41t81.5 96.5t44 132.5t10 153v-2q-4 79 -23 149.5t-53 129.5 t-88.5 92.5t-122 30.5t-119 -40.5t-80.5 -98.5t-43 -133.5t-11 -152.5z" />
<glyph unicode="&#xf5;" horiz-adv-x="938" d="M19 461q1 68 19.5 136t55.5 129t87 107.5t118.5 74t145.5 26.5q86 0 157 -27.5t119 -74t81.5 -108.5t48 -129.5t13.5 -137.5q0 -67 -19.5 -135t-57 -129t-87.5 -107.5t-118 -74t-143 -27.5q-86 0 -157.5 29.5t-119 77t-80.5 110t-48 128t-15 132.5zM167 1052 q2 12 21 33.5t46.5 44t65 38.5t72.5 16q28 0 104.5 -31t105.5 -31t54 11t35 22l10 11l40 -21q-4 -5 -11 -12.5t-28 -26.5t-42.5 -34t-53 -27t-59.5 -12q-40 0 -84 17.5t-78 35t-49 17.5q-26 0 -53.5 -16t-41.5 -32l-14 -16zM171 447q3 -78 23 -149.5t54.5 -128t89 -89.5 t119.5 -31q67 4 118.5 41t81.5 96.5t44 132.5t10 153v-2q-4 79 -23 149.5t-53 129.5t-88.5 92.5t-122 30.5t-119 -40.5t-80.5 -98.5t-43 -133.5t-11 -152.5z" />
<glyph unicode="&#xf6;" horiz-adv-x="938" d="M19 461q1 68 19.5 136t55.5 129t87 107.5t118.5 74t145.5 26.5q86 0 157 -27.5t119 -74t81.5 -108.5t48 -129.5t13.5 -137.5q0 -67 -19.5 -135t-57 -129t-87.5 -107.5t-118 -74t-143 -27.5q-86 0 -157.5 29.5t-119 77t-80.5 110t-48 128t-15 132.5zM171 447 q3 -78 23 -149.5t54.5 -128t89 -89.5t119.5 -31q67 4 118.5 41t81.5 96.5t44 132.5t10 153v-2q-4 79 -23 149.5t-53 129.5t-88.5 92.5t-122 30.5t-119 -40.5t-80.5 -98.5t-43 -133.5t-11 -152.5zM220 1118q0 35 24 59.5t58 24.5q17 0 32.5 -6.5t26.5 -17.5t17.5 -26t6.5 -32 h2q0 -37 -25 -62t-62 -25q-33 0 -56.5 25t-23.5 60zM491 1118q0 35 24 59.5t59 24.5t59.5 -24t24.5 -58q0 -36 -24.5 -61.5t-59 -25.5t-59 25t-24.5 60z" />
<glyph unicode="&#xf7;" horiz-adv-x="937" d="M68 614v112h743v-112h-743zM347 396q0 36 25 62.5t61 26.5q37 0 62.5 -26t25.5 -63v2q0 -37 -24.5 -63t-60.5 -26t-62.5 26t-26.5 61zM347 942q0 36 25 61.5t61 25.5q14 0 27.5 -4t24.5 -12t19 -18.5t12.5 -23.5t4.5 -27q0 -36 -24.5 -61.5t-60.5 -25.5t-62.5 25.5 t-26.5 59.5z" />
<glyph unicode="&#xf8;" horiz-adv-x="938" d="M19 461q0 68 18.5 136t55.5 129t87 108t119 74.5t146 27.5q137 0 236 -74q14 18 27 36.5t19.5 28.5t7.5 11h95q-3 -5 -16 -21t-33.5 -43.5t-41.5 -54.5q42 -47 70.5 -108.5t41.5 -125t13 -128.5q0 -67 -19 -135t-56.5 -129t-88 -108t-118.5 -74.5t-143 -27.5 q-148 0 -255 89q-51 -68 -51 -80h-99q3 4 17 23t36 48t44 60q-56 68 -84 158t-28 180zM171 449q6 -127 45 -212q64 85 205.5 276.5t196.5 265.5v-2q-76 95 -185 95h-8q-65 -2 -115 -37t-79.5 -92.5t-44.5 -126.5t-15 -146v-21zM252 161q81 -112 197 -112h8q64 3 114.5 37 t80 90.5t44.5 125.5t15 147v21q-3 132 -59 235q-49 -68 -400 -544z" />
<glyph unicode="&#xf9;" horiz-adv-x="955" d="M12 886l212 50v-580q0 -124 58.5 -196.5t153.5 -72.5q31 0 59.5 7t46 13t45 25.5t37.5 27.5t41 35v614q0 9 -1 17t-2.5 13.5t-5.5 11t-6 9t-8 7t-8 5.5t-10 4.5t-9.5 3t-10.5 3t-10 3.5l208 50v-790q0 -98 82 -110l-149 -53q-28 18 -39.5 30t-20 38.5t-8.5 71.5 q-26 -29 -52 -50.5t-62 -43.5t-81.5 -34t-96.5 -12q-36 0 -73 9.5t-77.5 36t-71 66.5t-50.5 107t-20 152v455q0 9 -1 17t-2.5 13.5t-5.5 11t-6 9t-8 7t-8 5.5t-10 4.5t-9.5 3t-10.5 3t-10 3.5zM252 1186q0 29 19 47t47 18q41 0 89 -61l100 -120q53 -68 49 -75q-3 -4 -29 6.5 t-60 28.5l-68 36t-57 31l-24 14q-66 31 -66 75z" />
<glyph unicode="&#xfa;" horiz-adv-x="955" d="M14 886l210 50v-580q0 -124 59.5 -196.5t153.5 -72.5q31 0 59 6.5t47 13.5t45 25t38 28t41 35v614q0 51 -42 67q-7 3 -25 8l-6 2l208 50v-790q0 -98 84 -110l-151 -53q-21 15 -30 23t-20 23.5t-14.5 37.5t-3.5 56q-126 -140 -290 -140q-36 0 -73 9.5t-78 36t-71.5 66.5 t-51 107t-20.5 152v455q0 10 -1 18.5t-4 15t-5 11.5t-8.5 9t-8.5 6.5t-10.5 5.5t-10 4t-11.5 3.5t-10 3.5zM330 995q-3 3 11 24.5t36 49t45 55t39 45.5l16 19q47 63 91 63q27 0 46 -18.5t19 -46.5q0 -43 -67 -75l-150 -81q-80 -41 -86 -35z" />
<glyph unicode="&#xfb;" horiz-adv-x="955" d="M14 886l210 50v-580q0 -124 59.5 -196.5t153.5 -72.5q31 0 59 6.5t47 13.5t45 25t38 28t41 35v614q0 51 -42 67q-7 3 -25 8l-6 2l208 50v-790q0 -98 84 -110l-151 -53q-21 15 -30 23t-20 23.5t-14.5 37.5t-3.5 56q-126 -140 -290 -140q-36 0 -73 9.5t-78 36t-71.5 66.5 t-51 107t-20.5 152v455q0 10 -1 18.5t-4 15t-5 11.5t-8.5 9t-8.5 6.5t-10.5 5.5t-10 4t-11.5 3.5t-10 3.5zM175 995q-8 8 126 132t144 124q13 0 146 -123.5t126 -132.5q-3 -3 -19.5 2.5t-40.5 16.5t-52 25l-56 28t-51 26t-37 20l-14 7l-165 -84q-100 -48 -107 -41z" />
<glyph unicode="&#xfc;" horiz-adv-x="955" d="M14 886l212 50v-580q0 -124 58.5 -196.5t152.5 -72.5q27 0 49.5 3.5t44 12.5t35 15.5t35.5 23t30.5 24t33.5 29.5v614q0 10 -1 18.5t-4 15t-5 11.5t-8.5 9t-8.5 6.5t-10.5 5.5t-10 4t-11.5 3.5t-10 3.5l208 50v-790q0 -98 82 -110l-149 -53q-22 14 -31.5 22.5t-20.5 24 t-14.5 37.5t-3.5 56q-126 -140 -290 -140q-36 0 -73 9.5t-78 36t-71.5 66.5t-51 107t-20.5 152v455q0 20 -4.5 34t-15.5 22t-19 11t-24 8q-4 1 -6 2zM226 1118q0 35 23.5 59.5t57.5 24.5q24 0 44 -11t31.5 -29.5t11.5 -41.5h2q0 -36 -26 -61.5t-61 -25.5t-59 25t-24 60z M497 1118q0 35 24 59.5t59 24.5q34 0 58.5 -24t24.5 -58q0 -24 -11 -44t-29.5 -31.5t-40.5 -11.5q-36 0 -60.5 25t-24.5 60z" />
<glyph unicode="&#xfd;" horiz-adv-x="750" d="M-85 910h314q-18 -7 -27 -11t-21 -12t-17 -18.5t-5 -24.5q0 -18 10 -44l216 -590q173 393 246 590q11 29 11 40q0 57 -74 68h255v2q-40 -20 -63.5 -39.5t-36.5 -51.5q-51 -125 -252.5 -583t-303.5 -708h-169q17 8 30.5 17t23.5 15.5t20 18t14.5 16t13 19t11 18t11.5 21 t11 21.5q19 36 43.5 84.5t42 85t48.5 102t47 98.5l-300 775q-8 18 -15 30.5t-12 20t-15 14t-14.5 9t-20 8.5t-22.5 9zM338 995v2q0 5 8 18t21 30t29 36.5t32 38.5t29 34.5t22 24.5l8 9q47 63 91 63q26 0 45 -18.5t19 -46.5q0 -44 -66 -75q-205 -116 -235 -116h-3z" />
<glyph unicode="&#xfe;" horiz-adv-x="967" d="M32 1317l205 52v-565q21 28 58.5 56.5t96.5 52t118 23.5q50 0 101.5 -16.5t102.5 -53.5t91 -90.5t64.5 -134.5t24.5 -178q0 -52 -12.5 -107t-36.5 -109t-62 -101.5t-86 -84t-112.5 -57.5t-137.5 -21q-118 0 -208 47v-407q0 -31 12.5 -46t40.5 -28h-246q26 11 38.5 27 t12.5 47v1615q0 22 -5 36.5t-16.5 23t-19 11.5t-24.5 8zM239 153q80 -105 194 -105q137 0 220.5 108.5t83.5 300.5q0 90 -20 160t-50 110.5t-69.5 66t-74 34t-68.5 8.5q-63 0 -122.5 -31t-93.5 -74v-578z" />
<glyph unicode="&#xff;" horiz-adv-x="740" d="M-106 910h315q-18 -7 -27 -11t-20.5 -12t-16 -18.5t-4.5 -24.5q0 -20 8 -44l217 -590q145 324 248 590q8 21 8 40q0 57 -74 68h256v2q-40 -20 -63.5 -39.5t-35.5 -51.5q-46 -111 -249 -572t-309 -719h-166q16 8 30 17t23.5 15.5t19.5 18t15 16t13.5 19t10.5 18t11.5 21 t10.5 21.5q57 108 179 370l-300 775q-7 18 -14 30.5t-12 20t-15 14t-15 9t-20 8t-24 9.5zM147 1118q0 35 24.5 59.5t59.5 24.5q34 0 57.5 -23.5t23.5 -58.5h2q0 -36 -25 -61.5t-60 -25.5t-58.5 24.5t-23.5 60.5zM415 1118q0 35 24.5 59.5t59 24.5t59 -24t24.5 -58 q0 -37 -23.5 -62t-57.5 -25q-24 0 -43.5 11.5t-31 31t-11.5 42.5z" />
<glyph unicode="&#x102;" horiz-adv-x="1103" d="M-99 0q41 28 58.5 47t30.5 48l539 1281q500 -1205 530 -1279q8 -19 13.5 -29t16.5 -23t28 -23.5t43 -21.5h-326q56 23 56 61q0 17 -8 34q-2 4 -23 54.5t-51 122.5t-59 143h-531q-112 -260 -131 -318q-9 -26 -9 -40q0 -38 51 -57h-228zM246 493h473v-2q-49 118 -108 266 t-93 237l-35 89q-134 -342 -237 -590zM276 1737v17h28q0 -4 0.5 -10t6 -23t14 -33t26 -35t40.5 -33t60 -23.5t82 -9.5q46 0 84 9t61 24t40 32.5t25 35.5t12.5 32.5t4.5 24.5v9h34q1 -12 0.5 -32.5t-13 -72t-36.5 -91t-79.5 -72t-132.5 -32.5q-57 0 -101.5 16.5t-71 43 t-45 58.5t-25.5 64t-11 58.5t-3 42.5z" />
<glyph unicode="&#x103;" horiz-adv-x="834" d="M8 222q0 144 131 225q43 26 136 54t172 54.5t105 54.5v82q0 32 -9 62t-28 56.5t-54.5 42t-83.5 15.5q-50 0 -91 -14.5t-69 -37.5t-52.5 -60.5t-40.5 -74.5t-33 -89l-6 238q5 4 15 11q34 23 54 35t56.5 28.5t80 24t96.5 7.5q39 0 76 -5.5t80 -22.5t74.5 -44t53 -75 t21.5 -110v-544q0 -3 -0.5 -14.5t0 -14.5t1 -12t2 -12t4.5 -10t7.5 -9.5t10.5 -6.5t14.5 -6.5t19.5 -3.5l-127 -65q-26 18 -38.5 32t-20.5 43.5t-9 78.5q-36 -40 -76.5 -71t-105 -56t-132.5 -25q-50 0 -91.5 17t-67 43.5t-43.5 60t-25 63t-7 55.5zM149 254q0 -54 18.5 -92.5 t53.5 -58.5t85 -20q141 0 248 116l2 328q-23 -12 -50.5 -22.5t-47.5 -17t-62 -19.5t-66 -21q-86 -29 -133.5 -73.5t-47.5 -119.5zM202 1205l1 12h21q0 -5 1.5 -13.5t11.5 -30t26.5 -38t51.5 -30t81 -13.5q48 0 83 13t51 31.5t25 37t10 30.5l1 13h26v-12t-3 -31.5t-9 -44.5 t-20.5 -47t-34.5 -44.5t-53.5 -31.5t-75.5 -13t-75.5 12.5t-53.5 32.5t-34 43.5t-19.5 47.5t-8.5 44t-3 32z" />
<glyph unicode="&#x104;" horiz-adv-x="1103" d="M-99 0q41 28 58.5 47t30.5 48l539 1281q500 -1205 530 -1279q8 -19 13.5 -29t16.5 -23t28 -23.5t43 -21.5h-326q56 23 56 61q0 17 -8 34q-2 4 -23 54.5t-51 122.5t-59 143h-531q-112 -260 -131 -318q-9 -26 -9 -40q0 -38 51 -57h-228zM246 493h473v-2q-49 118 -108 266 t-93 237l-35 89q-134 -342 -237 -590zM851 -207q0 99 68.5 153t187.5 54q-2 -10 -8 -12q-15 -5 -26 -9t-38.5 -20.5t-45.5 -34.5t-33.5 -49.5t-15.5 -67.5q0 -38 27 -64.5t70 -26.5q13 0 22.5 1t25 5.5t34 15t41.5 27.5v2q-1 -20 -9 -42t-24 -42.5t-43.5 -33.5t-62.5 -13 q-73 0 -121.5 45.5t-48.5 111.5z" />
<glyph unicode="&#x105;" horiz-adv-x="834" d="M8 222q0 144 131 225q43 26 136 54t172 54.5t105 54.5v82q0 32 -9 62t-28 56.5t-54.5 42t-83.5 15.5q-50 0 -91 -14.5t-69 -37.5t-52.5 -60.5t-40.5 -74.5t-33 -89l-6 238q5 4 15 11q34 23 54 35t56.5 28.5t80 24t96.5 7.5q39 0 76 -5.5t80 -22.5t74.5 -44t53 -75 t21.5 -110v-544q0 -3 -0.5 -14.5t0 -14.5t1 -12t2 -12t4.5 -10t7.5 -9.5t10.5 -6.5t14.5 -6.5t19.5 -3.5l-127 -65q-26 18 -38.5 32t-20.5 43.5t-9 78.5q-36 -40 -76.5 -71t-105 -56t-132.5 -25q-50 0 -91.5 17t-67 43.5t-43.5 60t-25 63t-7 55.5zM149 254q0 -54 18.5 -92.5 t53.5 -58.5t85 -20q141 0 248 116l2 328q-23 -12 -50.5 -22.5t-47.5 -17t-62 -19.5t-66 -21q-86 -29 -133.5 -73.5t-47.5 -119.5zM441 -207q0 99 68.5 153t187.5 54q-2 -10 -7 -12q-15 -5 -26 -9t-39 -20.5t-46 -34.5t-33 -49.5t-15 -67.5q0 -38 26.5 -64.5t70.5 -26.5 q17 0 30 2t38 13.5t55 33.5v2q-1 -20 -9.5 -42t-24 -42.5t-43 -33.5t-62.5 -13q-73 0 -122 45.5t-49 111.5z" />
<glyph unicode="&#x106;" horiz-adv-x="1356" d="M16 669q0 102 30 201.5t93 190t151.5 159t214.5 109t272 40.5q114 0 225 -30.5t245 -89.5q2 -18 4 -48.5t6 -95t7 -105.5t2 -39q-24 55 -54.5 101t-63.5 79t-67 59t-69.5 42.5t-67 27.5t-63 17t-53.5 8t-43 2q-117 0 -215 -31.5t-167 -86.5t-117.5 -131t-71.5 -163.5 t-23 -185.5q0 -64 10 -128t32 -128t55 -120t80.5 -105t106 -84t135 -55t163.5 -20h6q30 0 49.5 1t61 7t74 17.5t78 36t82.5 58.5t77.5 88t74.5 122q3 6 -19 -266q-115 -72 -248.5 -106t-251.5 -34t-228.5 31.5t-203 92t-162 143t-108.5 191t-39 228.5zM610 1412v2 q0 6 15.5 27.5t37.5 49t44.5 54t37.5 44.5l15 18q50 63 88 63q28 0 47 -18.5t19 -46.5q0 -43 -66 -75q-202 -120 -234 -120z" />
<glyph unicode="&#x107;" horiz-adv-x="817" d="M19 455q0 61 16 125t52 128.5t87 114.5t128.5 81.5t169.5 31.5q53 0 117 -19t101 -38l38 -19v-254q-34 117 -108.5 190.5t-166.5 73.5q-58 0 -107 -24t-81.5 -63.5t-55 -90.5t-32.5 -104t-10 -105q0 -77 20 -147.5t58.5 -126.5t100.5 -89t139 -33q43 0 83 9.5t67.5 22 t56 32t43 32.5t32.5 31q-2 -19 -14 -46.5t-38.5 -60.5t-62 -60t-90 -45.5t-117.5 -18.5q-85 0 -156.5 29t-120.5 76.5t-83 109.5t-50 127t-16 130zM364 995q-5 5 31.5 53.5t75.5 94.5l39 45q47 63 92 63q26 0 44.5 -18.5t18.5 -46.5q0 -44 -66 -75l-143 -79q-86 -44 -92 -37 z" />
<glyph unicode="&#x10c;" horiz-adv-x="1356" d="M16 669q0 102 30 201.5t93 190t151.5 159t214.5 109t272 40.5q114 0 225 -30.5t245 -89.5q2 -18 4 -48.5t6 -95t7 -105.5t2 -39q-24 55 -54.5 101t-63.5 79t-67 59t-69.5 42.5t-67 27.5t-63 17t-53.5 8t-43 2q-117 0 -215 -31.5t-167 -86.5t-117.5 -131t-71.5 -163.5 t-23 -185.5q0 -64 10 -128t32 -128t55 -120t80.5 -105t106 -84t135 -55t163.5 -20h6q30 0 49.5 1t61 7t74 17.5t78 36t82.5 58.5t77.5 88t74.5 122q3 6 -19 -266q-115 -72 -248.5 -106t-251.5 -34t-228.5 31.5t-203 92t-162 143t-108.5 191t-39 228.5zM487 1653h2h2 q14 0 81 -32t127 -63l60 -32q234 127 266 127h4v-2q0 -14 -129 -135t-141 -121t-142 122t-130 136z" />
<glyph unicode="&#x10d;" horiz-adv-x="817" d="M19 455q0 61 16 125t52 128.5t87 114.5t128.5 81.5t169.5 31.5q53 0 117 -19t101 -38l38 -19v-254q-34 117 -108.5 190.5t-166.5 73.5q-58 0 -107 -24t-81.5 -63.5t-55 -90.5t-32.5 -104t-10 -105q0 -77 20 -147.5t58.5 -126.5t100.5 -89t139 -33q43 0 83 9.5t67.5 22 t56 32t43 32.5t32.5 31q-2 -19 -14 -46.5t-38.5 -60.5t-62 -60t-90 -45.5t-117.5 -18.5q-85 0 -156.5 29t-120.5 76.5t-83 109.5t-50 127t-16 130zM157 1268v2h4q14 0 80 -32t125 -64l59 -31q237 127 269 127q3 0 3 -2q0 -14 -129 -135.5t-141 -121.5q-11 0 -140.5 121.5 t-129.5 135.5z" />
<glyph unicode="&#x10e;" horiz-adv-x="1374" d="M68 0q53 26 53 89v1172q0 63 -53 90h476q136 0 249.5 -28t190 -72.5t135 -105.5t92 -121t54 -125.5t27.5 -112t7 -87.5q0 -66 -13.5 -134t-44 -137t-75 -131.5t-110 -117t-145.5 -94t-186 -62.5t-226 -23h-431zM278 83q86 -5 256 -5q96 0 177 18.5t140.5 51.5t106.5 79.5 t78 100t51 116.5t28.5 125.5t8.5 129.5q0 55 -9 110.5t-29.5 112.5t-50.5 108t-75.5 96t-101.5 77.5t-131 51.5t-161 19q-19 0 -71 0.5t-86.5 0.5t-73 -1.5t-57.5 -3.5v-1187zM415 1708q4 4 33.5 -7.5t68.5 -30.5t77.5 -39t64.5 -34l27 -14l169 87q95 46 102 40h-2 q6 -5 -58 -69.5t-133.5 -126.5t-77.5 -62q-10 0 -143 124t-128 132z" />
<glyph unicode="&#x10f;" horiz-adv-x="942" d="M17 474q0 63 18.5 127.5t57 124.5t91 107t127 75t159.5 28q111 0 192 -70v376q0 20 -5.5 34t-16.5 22t-19.5 11.5t-24.5 8.5q-4 1 -6 1l212 50v-1250q0 -9 1.5 -16.5t3 -13.5t5.5 -11.5t6 -9t8 -7.5t8.5 -5.5t10 -4.5t9.5 -3.5t10.5 -3t9.5 -2.5l-203 -59l-4 110 q-25 -25 -63 -49t-91.5 -42.5t-103.5 -18.5q-83 0 -150.5 29t-111.5 77t-74 112.5t-43 132.5t-13 140zM171 477q0 -92 22 -165t54.5 -116.5t74.5 -72t78 -39t69 -10.5q37 0 77 14t67.5 32t48.5 37v603q-26 45 -69 75.5t-104 30.5q-142 0 -230 -106t-88 -283zM908 1327 q0 30 20 49t50 19q33 0 56 -29t23 -71q0 -49 -20 -101.5t-48 -87.5t-53 -41q-4 -1 -6.5 1t-1.5 5t6 4q18 5 42.5 65t24.5 126q-1 -1 -5.5 -2.5t-9.5 -3t-8 -1.5q-30 0 -50 19.5t-20 48.5z" />
<glyph unicode="&#x110;" horiz-adv-x="1374" d="M-141 735v91h618v-91h-618zM68 0q53 26 53 89v1172q0 63 -53 90h476q136 0 249.5 -28t190 -72.5t135 -105.5t92 -121t54 -125.5t27.5 -112t7 -87.5q0 -66 -13.5 -134t-44 -137t-75 -131.5t-110 -117t-145.5 -94t-186 -62.5t-226 -23h-431zM278 83q86 -5 256 -5 q96 0 177 18.5t140.5 51.5t106.5 79.5t78 100t51 116.5t28.5 125.5t8.5 129.5q0 55 -9 110.5t-29.5 112.5t-50.5 108t-75.5 96t-101.5 77.5t-131 51.5t-161 19q-19 0 -71 0.5t-86.5 0.5t-73 -1.5t-57.5 -3.5v-1187z" />
<glyph unicode="&#x111;" horiz-adv-x="937" d="M17 474q0 63 18.5 127.5t57 124.5t91 107t127 75t159.5 28q111 0 192 -70v376q0 20 -5.5 34t-16.5 22t-19.5 11.5t-24.5 8.5q-4 1 -6 1l212 50v-1250q0 -9 1.5 -16.5t3 -13.5t5.5 -11.5t6 -9t8 -7.5t8.5 -5.5t10 -4.5t9.5 -3.5t10.5 -3t9.5 -2.5l-203 -59l-4 110 q-25 -25 -63 -49t-91.5 -42.5t-103.5 -18.5q-83 0 -150.5 29t-111.5 77t-74 112.5t-43 132.5t-13 140zM171 477q0 -92 22 -165t54.5 -116.5t74.5 -72t78 -39t69 -10.5q37 0 77 14t67.5 32t48.5 37v603q-26 45 -69 75.5t-104 30.5q-142 0 -230 -106t-88 -283zM453 1054v108 h417v-105z" />
<glyph unicode="&#x118;" horiz-adv-x="887" d="M59 0q58 27 58 89v1172q0 60 -56 90h722l2 -147q-41 47 -110 57q-23 4 -114.5 9.5t-117.5 5.5h-170v-489h333q20 0 41 18t30 39v-186q-8 21 -28.5 39t-40.5 18h-335v-624q117 -15 216 -13h10q72 0 103.5 0.5t77 4t65 11t46 21.5t43 35t34.5 53l-38 -203h-771zM558 -207 q0 99 68.5 153t188.5 54q-3 -10 -9 -12q-15 -5 -26 -9.5t-38.5 -20.5t-45.5 -34t-33 -49.5t-15 -67.5q0 -38 27 -64.5t70 -26.5q18 0 31 2t37.5 13.5t54.5 33.5v2q-1 -20 -9 -42t-24 -42.5t-43.5 -33.5t-62.5 -13q-48 0 -87.5 21t-61.5 57t-22 79z" />
<glyph unicode="&#x119;" horiz-adv-x="889" d="M19 453q0 63 17 129t54 129.5t88 113.5t126.5 80.5t164.5 30.5q47 0 95.5 -13.5t96 -45t84 -77t59 -114.5t22.5 -152h-646q0 -4 -1 -15.5t-1 -16.5v-53q4 -104 41 -184.5t109.5 -129t172.5 -48.5t196.5 68.5t126.5 146.5q-3 -61 -32 -119t-76.5 -102t-114 -71t-140.5 -27 q-83 0 -155 27.5t-123.5 74.5t-89 107.5t-56 127t-18.5 133.5zM184 598h489v-2q0 74 -19 129.5t-52 86.5t-72.5 45.5t-86.5 14.5q-45 0 -84.5 -15.5t-68 -41t-50.5 -61.5t-35.5 -74.5t-20.5 -81.5zM472 -119q0 98 69 152t188 54q-2 -9 -8 -11q-15 -6 -26 -10t-38.5 -20 t-45.5 -34.5t-33 -49.5t-15 -68q0 -38 26.5 -64.5t70.5 -26.5q18 0 30.5 2t37.5 13.5t55 34.5v1q-1 -20 -9.5 -42t-24 -42t-43 -33t-62.5 -13q-74 0 -123 45.5t-49 111.5z" />
<glyph unicode="&#x11a;" horiz-adv-x="887" d="M59 0q58 27 58 89v1172q0 60 -56 90h722l2 -147q-41 47 -110 57q-23 4 -114.5 9.5t-117.5 5.5h-170v-489h333q20 0 41 18t30 39v-186q-8 21 -28.5 39t-40.5 18h-335v-624q117 -15 216 -13h10q72 0 103.5 0.5t77 4t65 11t46 21.5t43 35t34.5 53l-38 -203h-771zM191 1653h2 h2q14 0 81 -32t127 -63l60 -32q234 127 266 127h4v-2q0 -14 -129 -135t-141 -121q-11 0 -141.5 122t-130.5 136z" />
<glyph unicode="&#x11b;" horiz-adv-x="895" d="M19 453q0 63 17 129t54 129.5t88 113.5t126.5 80.5t164.5 30.5q47 0 95.5 -13.5t96 -45t84 -77t59 -114.5t22.5 -152h-646q0 -4 -1 -15.5t-1 -16.5v-53q4 -104 41 -184.5t109.5 -129t172.5 -48.5t196.5 68.5t126.5 146.5q-3 -61 -32 -119t-76.5 -102t-114 -71t-140.5 -27 q-83 0 -155 27.5t-123.5 74.5t-89 107.5t-56 127t-18.5 133.5zM177 1270v2h3q15 0 81 -32t125 -64l59 -31q236 127 268 127q4 0 4 -2q0 -14 -129 -135.5t-141 -121.5q-11 0 -140.5 121.5t-129.5 135.5zM184 598h489v-2q0 74 -19 129.5t-52 86.5t-72.5 45.5t-86.5 14.5 q-45 0 -84.5 -15.5t-68 -41t-50.5 -61.5t-35.5 -74.5t-20.5 -81.5z" />
<glyph unicode="&#x131;" horiz-adv-x="392" d="M32 886l210 50v-860q0 -31 12.5 -45.5t41.5 -30.5h-247q28 13 41 28.5t13 45.5v735q0 9 -1.5 17t-2.5 13.5t-5.5 11t-6 9t-8 7.5t-8 5t-9.5 4t-9 3.5t-11 3.5z" />
<glyph unicode="&#x139;" horiz-adv-x="885" d="M51 0q57 26 57 89v1172q0 61 -57 90h267q-54 -26 -54 -90v-1170q112 -15 206 -13h98t74.5 2t64 7.5t46.5 13.5t41.5 22t31 33t31.5 47l-36 -203h-770zM433 1351q0 31 20 49t49 18q34 0 57 -28t23 -71q0 -49 -20 -101.5t-48 -88t-53 -41.5q-4 -1 -7 1.5t-2 5.5t7 4 q6 2 14.5 12.5t17.5 29t17 41t13.5 51t5.5 56.5q-2 -1 -11 -3.5t-14 -2.5q-29 0 -49 20t-20 48z" />
<glyph unicode="&#x13a;" horiz-adv-x="394" d="M28 1319l214 50v-1293q0 -32 12 -46.5t42 -29.5h-247q27 14 39.5 29t12.5 45v1168q0 52 -43 68q-8 3 -25 8zM336 1341q0 30 20 48.5t49 18.5q34 0 57 -28t23 -70q0 -50 -20 -102.5t-48 -88t-53 -40.5q-4 -1 -7 1t-2 4.5t7 3.5q10 3 25.5 29.5t28.5 72t13 89.5 q-2 -1 -10.5 -3t-13.5 -2q-29 0 -49 19t-20 48z" />
<glyph unicode="&#x13d;" horiz-adv-x="885" d="M51 0q57 26 57 89v1172q0 61 -57 90h267q-54 -26 -54 -90v-1170q112 -15 206 -13h98t74.5 2t64 7.5t46.5 13.5t41.5 22t31 33t31.5 47l-36 -203h-770zM433 1351q0 31 20 49t49 18q34 0 57 -28t23 -71q0 -49 -20 -101.5t-48 -88t-53 -41.5q-4 -1 -7 1.5t-2 5.5t7 4 q6 2 14.5 12.5t17.5 29t17 41t13.5 51t5.5 56.5q-2 -1 -11 -3.5t-14 -2.5q-29 0 -49 20t-20 48z" />
<glyph unicode="&#x13e;" horiz-adv-x="358" d="M28 1319l214 50v-1293q0 -32 12 -46.5t42 -29.5h-247q27 14 39.5 29t12.5 45v1168q0 52 -43 68q-8 3 -25 8zM336 1341q0 30 20 48.5t49 18.5q34 0 57 -28t23 -70q0 -50 -20 -102.5t-48 -88t-53 -40.5q-4 -1 -7 1t-2 4.5t7 3.5q10 3 25.5 29.5t28.5 72t13 89.5 q-2 -1 -10.5 -3t-13.5 -2q-29 0 -49 19t-20 48z" />
<glyph unicode="&#x141;" horiz-adv-x="885" d="M-17 648v71l134 36v506q0 61 -56 90h267q-53 -26 -53 -90v-465l148 42v-74l-148 -38v-635q112 -15 206 -13h97t75 2t64 7.5t46 13.5t41.5 22t30.5 33t31 47l-36 -203h-769q56 26 56 89v595z" />
<glyph unicode="&#x142;" horiz-adv-x="394" d="M-46 642v71l147 40v489q0 52 -43 68q-8 3 -25 8l-5 1l214 50v-578l154 41v-73l-154 -40v-643q0 -32 12 -46.5t42 -29.5h-247q27 14 39.5 29t12.5 45v607z" />
<glyph unicode="&#x143;" horiz-adv-x="1249" d="M6 1351h236l812 -1013v923q0 63 -53 90h193q-53 -26 -53 -90v-1289q-944 1161 -944 1180v-1063q0 -62 55 -89h-191q54 28 54 89v1113q0 38 -2.5 48.5t-15.5 28.5q-21 26 -40.5 43t-50.5 29zM548 1403q-2 3 12.5 24t37.5 49.5t46 56t39 46.5l16 19q50 63 90 63 q27 0 46.5 -19.5t19.5 -45.5q0 -25 -20.5 -44.5t-47.5 -31.5l-139 -77q-91 -48 -100 -40z" />
<glyph unicode="&#x144;" horiz-adv-x="923" d="M32 888l210 48v-147q18 19 44 41.5t63.5 47.5t84.5 41.5t93 16.5q53 0 104.5 -18.5t93 -51.5t67 -85.5t25.5 -115.5v-589q0 -22 7 -36.5t16 -22t28 -17.5h-242q28 13 40.5 28t12.5 46v520q0 38 -6 70.5t-21.5 64.5t-40 54t-64.5 35.5t-92 13.5q-32 0 -64.5 -10 t-59.5 -26.5t-49 -34.5t-40 -38v-647q0 -32 12 -46.5t42 -29.5h-247q28 13 40 28t12 46v735q0 22 -5 36.5t-17 22.5t-20.5 11.5t-26.5 8.5zM377 1007q-2 2 2 9.5t12 19.5t19 26.5t24 30t25.5 31t24.5 29t21 24t14 17.5l6 6q47 64 91 64q26 0 44.5 -19t18.5 -47 q0 -44 -65 -76l-145 -79q-85 -43 -92 -36z" />
<glyph unicode="&#x147;" horiz-adv-x="1278" d="M6 1351h236l812 -1013v923q0 63 -53 90h193q-53 -26 -53 -90v-1289q-944 1161 -944 1180v-1063q0 -62 55 -89h-191q54 28 54 89v1113q0 38 -2.5 48.5t-15.5 28.5q-21 26 -40.5 43t-50.5 29zM370 1668h2h1q15 0 82 -31.5t127 -63.5l60 -32q234 127 266 127h4v-2 q0 -13 -129 -134.5t-141 -121.5q-6 0 -74 60.5t-133 124.5t-65 73z" />
<glyph unicode="&#x148;" horiz-adv-x="929" d="M32 888l210 48v-147q18 19 44 41.5t63.5 47.5t84.5 41.5t93 16.5q53 0 104.5 -18.5t93 -51.5t67 -85.5t25.5 -115.5v-589q0 -22 7 -36.5t16 -22t28 -17.5h-242q28 13 40.5 28t12.5 46v520q0 38 -6 70.5t-21.5 64.5t-40 54t-64.5 35.5t-92 13.5q-32 0 -64.5 -10 t-59.5 -26.5t-49 -34.5t-40 -38v-647q0 -32 12 -46.5t42 -29.5h-247q28 13 40 28t12 46v735q0 22 -5 36.5t-17 22.5t-20.5 11.5t-26.5 8.5zM193 1270v2h4q14 0 80 -32t125 -64l59 -31q236 127 268 127q4 0 4 -2q0 -14 -129 -135.5t-141 -121.5q-7 0 -74 60t-131.5 124 t-64.5 73z" />
<glyph unicode="&#x150;" horiz-adv-x="1533" d="M14 675v20q3 94 35 189t95 182t147.5 154.5t201.5 108t248 40.5h23q98 -3 195.5 -33t187.5 -88t159 -137t110.5 -190t41.5 -237v-22q-3 -107 -35.5 -203t-86 -169t-123.5 -132.5t-149.5 -97t-162 -57.5t-162.5 -20h-18q-111 3 -216.5 37.5t-193.5 97t-155 145 t-104.5 189.5t-37.5 223zM195 703q0 -92 17 -173.5t47 -145.5t71 -117t89 -90t102 -63t108.5 -38t109.5 -12q116 0 215 42.5t169 119.5t109.5 187.5t39.5 242.5q0 81 -13 155.5t-37.5 138t-60 117.5t-81 95.5t-98.5 71t-114.5 44.5t-128.5 15q-116 0 -215.5 -41 t-172.5 -115.5t-114.5 -186.5t-41.5 -247zM552 1454q0 1 6 -2q-1 4 5.5 17.5t18 32t25.5 39.5t28.5 41.5t26 37t18.5 26.5l8 11q3 3 18 21.5t21.5 25t19 15.5t24.5 11q29 0 50 -18.5t23 -45.5q7 -44 -61 -77q-4 -3 -11 -8t-27.5 -19t-39.5 -27t-43 -29t-43 -27t-34.5 -19 t-21.5 -8q-1 0 -3.5 1t-4.5 1.5t-3 -0.5zM811 1452v2q0 9 37.5 57t75.5 92l37 44q18 20 27.5 30t27.5 21.5t35 11.5q28 0 47.5 -19t19.5 -46q0 -42 -69 -76q-204 -117 -234 -117h-4z" />
<glyph unicode="&#x151;" horiz-adv-x="927" d="M17 461q1 68 19.5 136t55.5 129t87 107.5t118.5 74t145.5 26.5q86 0 157.5 -27.5t119 -74t81 -108.5t48 -129.5t13.5 -137.5q0 -67 -19.5 -135t-56.5 -129t-87.5 -107.5t-118.5 -74t-143 -27.5q-86 0 -157.5 29.5t-119 77t-80.5 110t-48 128t-15 132.5zM169 447 q3 -77 22 -147.5t53 -127t86 -90t115 -33.5h10q63 3 113 36.5t80 88t45.5 122t15.5 141.5v33q-4 77 -22.5 146.5t-51 128t-85 93t-117.5 34.5h-10q-64 -3 -114 -37.5t-80 -91.5t-45 -125t-15 -144v-27zM254 989q1 1 6 -2q-2 9 30.5 60t65.5 98l33 47q3 4 18.5 22t21.5 24.5 t18.5 15.5t24.5 12q29 0 51 -18.5t23 -45.5q7 -45 -61 -78q-4 -3 -11 -7.5t-27.5 -19t-39.5 -27.5t-43.5 -28.5t-43 -27t-34.5 -19.5t-22 -8l-4.5 2t-5.5 0zM512 987v2q0 9 38 57.5t76 91.5l37 44q18 21 27.5 31t27.5 21t35 11q18 0 34 -8.5t25 -23.5t9 -33q0 -41 -70 -75 q-205 -118 -235 -118h-4z" />
<glyph unicode="&#x152;" horiz-adv-x="1712" d="M14 669q0 95 30 192.5t92.5 187t147.5 160t204 112.5t253 42q22 0 48.5 -2t59.5 -5t51 -5h700l1 -147q-18 26 -56 47t-77 23q-104 2 -198.5 2.5t-138.5 -0.5h-43v-489h334q20 0 42 18t32 39v-186q-8 20 -30 38.5t-42 18.5h-336v-624q88 -15 220 -15h26q41 1 60 1.5 t50.5 1.5t46 3t38 5t35 7.5t29 11.5t27 16t22.5 21t22.5 26.5t20.5 33.5l-36 -203h-747q-88 -16 -165 -16q-112 0 -219 32t-198 93t-159.5 143.5t-107.5 190.5t-39 226zM193 699q0 -105 22.5 -197.5t62 -160.5t91.5 -121.5t112 -86.5t123 -50t125 -17q203 0 203 180h2v867 q0 170 -203 170q-91 0 -173 -25.5t-148.5 -75.5t-115 -120t-75 -162.5t-26.5 -200.5z" />
<glyph unicode="&#x153;" horiz-adv-x="1586" d="M16 463q0 68 18 135.5t55 128.5t87.5 107.5t119 74t145.5 27.5q48 0 90 -9.5t72 -24t56 -32.5t45 -36t34.5 -33t29 -24.5t25 -9.5t26 9.5t31.5 24.5t37.5 33t48 36t59 32.5t74 24t89.5 9.5q49 0 97.5 -13.5t96 -44.5t83.5 -76.5t58.5 -114.5t22.5 -153h-646 q0 -8 -2 -32.5t-2 -34.5q0 -112 36 -196.5t110.5 -134t177.5 -49.5q99 0 196 68.5t130 146.5q-3 -40 -17 -79.5t-37.5 -75t-56.5 -66t-72 -52.5t-86.5 -34t-98.5 -12q-58 0 -108 13t-82.5 33t-61 44t-46.5 44t-35.5 33.5t-31.5 14.5q-14 0 -34.5 -19t-47.5 -45.5 t-61.5 -53.5t-88.5 -45.5t-115 -18.5q-86 0 -157.5 29t-119 77.5t-81 111.5t-48 129t-14.5 133zM167 463q0 -80 16.5 -152.5t48 -131.5t83.5 -94.5t118 -35.5q67 0 121 34.5t87.5 92.5t50.5 130.5t17 152.5q0 78 -15.5 149.5t-46.5 131.5t-84.5 96t-121.5 36 q-66 0 -119.5 -35t-86.5 -93.5t-50.5 -130.5t-17.5 -150zM872 598h491v-2q0 74 -19 129.5t-52.5 86.5t-72.5 45.5t-85 14.5q-58 0 -105.5 -23t-78 -62.5t-50 -87t-28.5 -101.5z" />
<glyph unicode="&#x154;" horiz-adv-x="1067" d="M64 0q53 28 53 89v1172q0 61 -53 90h345q64 0 119.5 -7.5t98 -20t79 -31t62 -39t46 -44.5t33 -48t20.5 -49t11.5 -47t3.5 -44q0 -61 -20.5 -115.5t-53.5 -92.5t-74 -66.5t-81 -44t-77 -18.5q23 -5 43.5 -15t38 -24t31 -27t27 -29.5t21 -27t16.5 -25.5q22 -39 58 -101 t115 -186.5t121 -168.5q12 -13 29.5 -26t34.5 -22.5t32 -16.5t24 -11l9 -4l-179 -4h-2q-85 0 -149 93q-67 97 -154 238.5t-88 142.5q-3 6 -18 30.5t-19.5 31t-19 26.5t-22.5 26.5t-23.5 19.5t-29 17.5t-32 9t-38.5 4.5h-129v-546q0 -59 55 -89h-264zM273 713q66 -6 125 -6 q62 0 117.5 19t100 56t71 98t26.5 138v-2q0 31 -7.5 64.5t-27 70.5t-49.5 65t-79.5 46.5t-112.5 18.5q-45 0 -86.5 -2t-59.5 -3l-18 -2v-561zM373 1412v2q0 9 38 57t76 92l38 44q50 63 87 63q28 0 46.5 -18.5t18.5 -46.5q0 -44 -65 -75q-203 -120 -235 -120z" />
<glyph unicode="&#x155;" horiz-adv-x="571" d="M30 886l212 50v-177q34 57 100.5 117t114.5 60q18 0 29.5 -1.5t16 -3t13.5 -5.5t15 -6v-156v-2q-25 25 -49 37t-59 12q-90 0 -181 -117v-618q0 -31 12.5 -45.5t41.5 -30.5h-247q28 13 40 28t12 46v735q0 20 -5 34t-16 22t-19 11t-24 8q-5 1 -7 2zM184 982q-5 5 32 53 t76 93l40 46q47 64 91 64q26 0 46 -19.5t20 -46.5q0 -43 -68 -76l-151 -80q-80 -40 -86 -34z" />
<glyph unicode="&#x158;" horiz-adv-x="1067" d="M38 0q53 28 53 89v1172q0 61 -53 90h345q71 0 132.5 -9t107 -25.5t82.5 -37.5t62 -47t43 -52.5t28 -55.5t14.5 -53.5t4.5 -49.5q0 -61 -21 -115.5t-53.5 -92.5t-74 -66.5t-81.5 -44t-77 -18.5q98 -24 178 -148q22 -39 58 -101t115 -186.5t120 -168.5q13 -13 30.5 -26 t34.5 -22.5t31.5 -16.5t23.5 -11l9 -4l-179 -4h-2q-84 0 -148 93q-39 56 -76 113t-61 96.5t-54.5 89.5t-51.5 82q-5 8 -15 24.5t-15 24.5t-15 22.5t-16.5 22.5t-17 19.5t-19.5 17.5t-21.5 14t-24.5 11.5t-27 6t-32 2.5h-129v-546q0 -59 56 -89h-264zM153 1666h2h2 q14 0 81 -31.5t127 -63.5l60 -32q235 127 267 127h3v-1q0 -14 -129 -135.5t-141 -121.5q-11 0 -141.5 122.5t-130.5 135.5zM246 713q66 -6 126 -6q61 0 117 19t101 56t71.5 98t26.5 138v-2q0 31 -7.5 64.5t-27.5 70.5t-50 65t-79.5 46.5t-112.5 18.5q-45 0 -86.5 -2 t-59.5 -3l-19 -2v-561z" />
<glyph unicode="&#x159;" horiz-adv-x="571" d="M19 1270v2h5q14 0 80 -32t125 -64l59 -31q236 127 268 127q5 0 5 -2q0 -14 -129.5 -135.5t-141.5 -121.5q-11 0 -141 121.5t-130 135.5zM30 886l212 50v-177q34 57 100.5 117t114.5 60q18 0 29.5 -1.5t16 -3t13.5 -5.5t15 -6v-156v-2q-25 25 -49 37t-59 12 q-90 0 -181 -117v-618q0 -31 12.5 -45.5t41.5 -30.5h-247q28 13 40 28t12 46v735q0 20 -5 34t-16 22t-19 11t-24 8q-5 1 -7 2z" />
<glyph unicode="&#x15a;" horiz-adv-x="867" d="M19 379q12 -38 27.5 -73.5t38 -73.5t52 -68.5t65 -55.5t81.5 -39t98 -14q64 0 115 20.5t80.5 50.5t49 69.5t27 74.5t7.5 68q0 50 -14.5 90.5t-32.5 67t-60.5 55t-72.5 44t-94 45.5q-7 4 -10.5 5.5t-10 4.5t-11 5t-10 5t-10.5 5q-62 31 -108.5 59.5t-84.5 61.5t-61.5 68.5 t-36.5 78.5t-13 92q0 65 23 121.5t61.5 96.5t89.5 69t108.5 43t116.5 14q163 0 274 -80l12 -246q-6 28 -22.5 61t-44.5 67.5t-63 62t-84 45.5t-101 18t-92.5 -14.5t-65.5 -37t-41.5 -52.5t-23 -58t-6.5 -56q0 -38 10 -68t28 -54t54 -50t74.5 -48t103.5 -55q20 -10 57.5 -29 t57.5 -29t52 -28t50 -31t43.5 -33.5t39.5 -39t31 -44.5t25 -53t14 -61.5t6 -72.5q0 -61 -18 -116.5t-49.5 -98.5t-73 -78.5t-89 -59t-98.5 -35.5t-100 -12q-41 0 -80 5t-75 16.5t-61.5 20.5t-58 26.5t-45.5 25t-41 24.5zM320 1412v2q0 6 15.5 27.5t37.5 49t44 54t38 44.5 l15 18q50 63 88 63q28 0 47 -18.5t19 -46.5q0 -43 -66 -75q-202 -120 -234 -120z" />
<glyph unicode="&#x15b;" horiz-adv-x="633" d="M8 80v242q16 -72 49 -131.5t85.5 -98.5t115.5 -39q31 0 57.5 7t45.5 18t34 26t24.5 30.5t16 32t9 29.5t2.5 24q0 17 -2.5 31.5t-9.5 28.5t-12.5 24t-20 22.5t-23.5 20t-30.5 21.5t-33 21t-40 23.5t-42.5 24.5q-116 69 -159.5 124t-43.5 138q0 24 6 49t19 52t35 51 t51 43.5t71.5 30.5t93.5 11q99 0 210 -64v-222q-12 43 -30 80t-43.5 71t-62.5 53.5t-80 19.5q-29 0 -54.5 -8t-43 -21t-30.5 -29.5t-19 -33.5t-6 -33q0 -25 8.5 -46.5t19.5 -37t36.5 -35t45 -31.5t59.5 -36q4 -2 11 -7q36 -21 54.5 -32t50.5 -32.5t49 -37t39.5 -40t33.5 -47 t19.5 -52t8.5 -61.5q0 -63 -29.5 -115.5t-76.5 -86t-103.5 -51.5t-112.5 -18q-39 0 -75.5 8t-73 27t-53 29t-50.5 33zM218 995q-3 3 11 24.5t36.5 49l45 55t38.5 45.5l17 19q46 63 91 63q26 0 45 -18.5t19 -46.5q0 -44 -66 -75l-145 -79q-86 -44 -92 -37z" />
<glyph unicode="&#x15e;" horiz-adv-x="885" d="M19 379q12 -38 27.5 -73.5t38 -73.5t52 -68.5t65 -55.5t81.5 -39t98 -14q64 0 115 20.5t80.5 50.5t49 69.5t27 74.5t7.5 68q0 50 -14.5 90.5t-32.5 67t-60.5 55t-72.5 44t-94 45.5q-7 4 -10.5 5.5t-10 4.5t-11 5t-10 5t-10.5 5q-62 31 -108.5 59.5t-84.5 61.5t-61.5 68.5 t-36.5 78.5t-13 92q0 65 23 121.5t61.5 96.5t89.5 69t108.5 43t116.5 14q163 0 274 -80l12 -246q-6 28 -22.5 61t-44.5 67.5t-63 62t-84 45.5t-101 18t-92.5 -14.5t-65.5 -37t-41.5 -52.5t-23 -58t-6.5 -56q0 -38 10 -68t28 -54t54 -50t74.5 -48t103.5 -55q20 -10 57.5 -29 t57.5 -29t52 -28t50 -31t43.5 -33.5t39.5 -39t31 -44.5t25 -53t14 -61.5t6 -72.5q0 -61 -18 -116.5t-49.5 -98.5t-73 -78.5t-89 -59t-98.5 -35.5t-100 -12q-41 0 -80 5t-75 16.5t-61.5 20.5t-58 26.5t-45.5 25t-41 24.5zM266 -280q52 -37 82.5 -52t55.5 -15q53 0 87 31 t34 75q0 22 -8.5 41t-23 32.5t-33 21t-39.5 7.5q-19 0 -37 -5t-34 -14.5t-36 -25.5l115 222h30l-50 -118q21 0 43.5 -2.5t53.5 -12.5t54.5 -26t40.5 -46.5t17 -71.5q0 -69 -54 -112t-141 -43q-123 0 -157 114z" />
<glyph unicode="&#x15f;" horiz-adv-x="648" d="M8 80v242q16 -72 49 -131.5t85.5 -98.5t115.5 -39q31 0 57.5 7t45.5 18t34 26t24.5 30.5t16 32t9 29.5t2.5 24q0 17 -2.5 31.5t-9.5 28.5t-12.5 24t-20 22.5t-23.5 20t-30.5 21.5t-33 21t-40 23.5t-42.5 24.5q-116 69 -159.5 124t-43.5 138q0 24 6 49t19 52t35 51 t51 43.5t71.5 30.5t93.5 11q99 0 210 -64v-222q-12 43 -30 80t-43.5 71t-62.5 53.5t-80 19.5q-29 0 -54.5 -8t-43 -21t-30.5 -29.5t-19 -33.5t-6 -33q0 -25 8.5 -46.5t19.5 -37t36.5 -35t45 -31.5t59.5 -36q4 -2 11 -7q36 -21 54.5 -32t50.5 -32.5t49 -37t39.5 -40t33.5 -47 t19.5 -52t8.5 -61.5q0 -63 -29.5 -115.5t-76.5 -86t-103.5 -51.5t-112.5 -18q-39 0 -75.5 8t-73 27t-53 29t-50.5 33zM149 -280q36 -25 58.5 -38.5t42.5 -21t36 -7.5q54 0 87.5 31t33.5 75t-30.5 73t-72.5 29q-20 0 -37.5 -5t-33.5 -14.5t-36 -25.5l115 222h29l-49 -118 q21 0 43.5 -2.5t53.5 -12.5t54.5 -26t40.5 -46.5t17 -71.5q0 -34 -14.5 -63t-40 -49t-62 -31.5t-78.5 -11.5q-122 0 -157 114z" />
<glyph unicode="&#x160;" horiz-adv-x="885" d="M19 379q12 -38 27.5 -73.5t38 -73.5t52 -68.5t65 -55.5t81.5 -39t98 -14q64 0 115 20.5t80.5 50.5t49 69.5t27 74.5t7.5 68q0 50 -14.5 90.5t-32.5 67t-60.5 55t-72.5 44t-94 45.5q-7 4 -10.5 5.5t-10 4.5t-11 5t-10 5t-10.5 5q-62 31 -108.5 59.5t-84.5 61.5t-61.5 68.5 t-36.5 78.5t-13 92q0 65 23 121.5t61.5 96.5t89.5 69t108.5 43t116.5 14q163 0 274 -80l12 -246q-6 28 -22.5 61t-44.5 67.5t-63 62t-84 45.5t-101 18t-92.5 -14.5t-65.5 -37t-41.5 -52.5t-23 -58t-6.5 -56q0 -38 10 -68t28 -54t54 -50t74.5 -48t103.5 -55q20 -10 57.5 -29 t57 -29t52 -28t50.5 -31t43.5 -33.5t39.5 -39.5t31 -45t25 -53t14 -61.5t6 -73.5v2q0 -61 -18 -116.5t-49.5 -98.5t-73 -78.5t-89 -59t-98.5 -35.5t-100 -12q-41 0 -80 5t-75 16.5t-61.5 20.5t-58 26.5t-45.5 25t-41 24.5zM151 1668q4 4 33.5 -7.5t68.5 -31t78 -39.5t65 -34 l27 -15l170 88q94 45 101 39h-2q6 -5 -57.5 -69.5t-133.5 -126.5t-78 -62q-5 0 -49.5 39t-95 86t-90.5 88t-37 45z" />
<glyph unicode="&#x161;" horiz-adv-x="648" d="M8 80v242q16 -72 49 -131.5t85.5 -98.5t115.5 -39q31 0 57.5 7t45.5 18t34 26t24.5 30.5t16 32t9 29.5t2.5 24q0 17 -2.5 31.5t-9.5 28.5t-12.5 24t-20 22.5t-23.5 20t-30.5 21.5t-33 21t-40 23.5t-42.5 24.5q-116 69 -159.5 124t-43.5 138q0 24 6 49t19 52t35 51 t51 43.5t71.5 30.5t93.5 11q99 0 210 -64v-222q-12 43 -30 80t-43.5 71t-62.5 53.5t-80 19.5q-29 0 -54.5 -8t-43 -21t-30.5 -29.5t-19 -33.5t-6 -33q0 -25 8.5 -46.5t19.5 -37t36.5 -35t45 -31.5t59.5 -36q4 -2 11 -7q36 -21 54.5 -32t50.5 -32.5t49 -37.5t39.5 -40 t33.5 -47t19.5 -53t8.5 -62v2q0 -63 -29.5 -115.5t-76.5 -86t-103.5 -51.5t-112.5 -18q-39 0 -75.5 8t-73 27t-53 29t-50.5 33zM26 1270q6 6 73.5 -25.5t131.5 -65.5l65 -34l171 87q94 46 101 40h-2q9 -9 -123.5 -134t-146.5 -125q-10 0 -142.5 124.5t-127.5 132.5z" />
<glyph unicode="&#x162;" horiz-adv-x="999" d="M-44 1186v165h1026v-165q-17 30 -44 53.5t-62 24.5q-181 12 -326 12v-1187q0 -60 52 -89h-262q51 25 51 89v1187q-66 0 -148 -3t-130 -6l-49 -3q-23 -1 -45.5 -14.5t-37 -29t-25.5 -34.5zM383 -151q0 26 12 45.5t31 29.5t43 10q41 0 70 -35t29 -88q0 -62 -25 -128.5 t-60 -109.5t-66 -50q-8 -4 -10 4q-2 6 8 8q10 3 24 23.5t28 51.5t24 76t10 88q-2 -2 -8.5 -4t-13.5 -3.5t-10 -1.5q-36 0 -61 24.5t-25 59.5z" />
<glyph unicode="&#x163;" horiz-adv-x="601" d="M17 838l220 245v-173h282v-72h-286v-572q0 -52 13 -91.5t31.5 -61t44.5 -35t47.5 -17.5t43.5 -4q18 0 32 1.5t26.5 5t20 6t17 9.5t13 9.5t13 11t11.5 10.5h-2q0 -41 -58.5 -85t-129.5 -44q-113 0 -186 70.5t-73 206.5v580h-80zM201 -177q0 14 3 25.5t8.5 21t13.5 17 t17.5 12.5t20.5 7.5t22 2.5q42 0 70.5 -35t28.5 -88q0 -63 -25 -129t-60 -109.5t-65 -49.5q-8 -3 -11 2q-3 6 9 9q13 3 32.5 35.5t36 89.5t16.5 114q-3 -3 -14 -5.5t-18 -2.5q-35 0 -60 24.5t-25 58.5z" />
<glyph unicode="&#x164;" horiz-adv-x="993" d="M-17 1186v165h1024v-165q-17 30 -43.5 53.5t-61.5 24.5q-181 12 -326 12v-1187q0 -61 52 -89h-262q51 25 51 89v1187q-66 0 -148 -3t-131 -6l-49 -3q-33 -1 -60.5 -24.5t-45.5 -53.5zM226 1668q4 4 33.5 -7.5t68.5 -31t78 -39.5t66 -34l27 -15l169 88q94 45 101 39h-2 q7 -5 -57 -69.5t-133.5 -126.5t-77.5 -62q-12 0 -146 125t-127 133z" />
<glyph unicode="&#x165;" horiz-adv-x="575" d="M10 840l219 244v-172h281v-72h-286v-572q0 -52 13 -91.5t32 -61t45 -35t47.5 -17.5t43.5 -4q16 0 29.5 1.5t23 3.5t19.5 5.5t15.5 6.5t13.5 8.5t11.5 8.5t11 9.5t9.5 9.5h-2q0 -41 -58.5 -85t-130.5 -44q-113 0 -185.5 70.5t-72.5 206.5v580h-79zM550 1079q0 30 20.5 49 t49.5 19q33 0 56 -29t23 -71q0 -49 -20 -102t-48 -87.5t-53 -40.5q-4 -1 -6.5 1t-1.5 5t6 3q18 6 43 66t25 126q-1 -1 -5.5 -3t-10 -3t-8.5 -1q-30 0 -50 19.5t-20 48.5z" />
<glyph unicode="&#x16e;" horiz-adv-x="1183" d="M38 1351h286q-66 -32 -66 -90v-844q0 -32 3.5 -62.5t13 -66.5t25 -67t41.5 -60.5t60.5 -50.5t84 -33.5t110.5 -12.5q82 0 145.5 19.5t104 52t66.5 78.5t36 94t9 103l-5 850q0 62 -52 90h196q-53 -26 -53 -90l-8 -844q-1 -78 -18 -142.5t-48 -111.5t-72 -82t-92.5 -56.5 t-106.5 -31.5t-116 -10q-67 0 -132 13.5t-129 46t-112 81t-78 124.5t-30 171v842q0 56 -63 90zM461 1512q0 54 39 94.5t92 40.5q54 0 95.5 -40t41.5 -95q0 -53 -40.5 -93.5t-94.5 -40.5t-93.5 39.5t-39.5 94.5zM512 1512q0 -35 23 -59t57 -24q35 0 58 23.5t23 59.5h2 q0 34 -23 56.5t-58.5 22.5t-58.5 -22.5t-23 -56.5z" />
<glyph unicode="&#x16f;" horiz-adv-x="942" d="M14 886l210 50v-580q0 -124 59.5 -196.5t153.5 -72.5q31 0 59 6.5t47 14t44 25t38 28t40 34.5v614q0 9 -1 17t-2.5 13.5t-5.5 11t-6 9t-8 7t-8 5.5t-10 4.5t-9.5 3t-10.5 3t-10 3.5l208 50v-790q0 -98 82 -108l-149 -55q-21 15 -30 23t-20 23.5t-14.5 37.5t-3.5 56 q-126 -140 -290 -140q-36 0 -73 9.5t-78 36t-71.5 66.5t-51 107t-20.5 152v455q0 10 -1 18.5t-4 15t-5 11.5t-8.5 9t-8.5 6.5t-10.5 5.5t-10 4t-11.5 3.5t-10 3.5zM314 1061q0 54 39.5 94.5t91.5 40.5q55 0 96 -40t41 -95q0 -54 -40.5 -94t-94.5 -40t-93.5 39.5t-39.5 94.5z M366 1061q0 -36 22.5 -59.5t56.5 -23.5q36 0 59 23.5t23 59.5h2q0 35 -23 57.5t-59 22.5q-17 0 -32.5 -6t-26 -16.5t-16.5 -25.5t-6 -32z" />
<glyph unicode="&#x170;" horiz-adv-x="1169" d="M38 1351h286q-66 -32 -66 -90v-844q0 -32 3.5 -62.5t13 -66.5t25 -67t41.5 -60.5t60.5 -50.5t84 -33.5t110.5 -12.5q82 0 145.5 19.5t104 52t66.5 78.5t36 94t9 103l-5 850q0 62 -52 90h196q-53 -26 -53 -90l-8 -844q-1 -78 -18 -142.5t-48 -111.5t-72 -82t-92.5 -56.5 t-106.5 -31.5t-116 -10q-67 0 -132 13.5t-129 46t-112 81t-78 124.5t-30 171v842q0 56 -63 90zM372 1424l5 -2q-1 5 12 28.5t32 52.5t38.5 57t33.5 47l13 20q3 3 18.5 21.5t21.5 24.5t19 15.5t25 11.5q29 0 50.5 -18t22.5 -45q8 -44 -61 -77q-4 -3 -11 -8t-27 -19.5 t-39.5 -27.5t-43.5 -28.5t-43 -27t-35 -19.5t-22 -8l-4 1.5t-5 0.5zM630 1422v2q0 5 15.5 27t37.5 49.5t44.5 54t37.5 44.5l16 18q14 17 20 23t19 18.5t25 17.5t25 5q28 0 48 -19.5t20 -46.5q0 -42 -70 -76q-205 -117 -235 -117h-3z" />
<glyph unicode="&#x171;" horiz-adv-x="950" d="M14 886l210 50v-580q0 -124 59.5 -196.5t153.5 -72.5q31 0 59 6.5t47 14t44 25t38 28t40 34.5v614q0 9 -1 17t-2.5 13.5t-5.5 11t-6 9t-8 7t-8 5.5t-10 4.5t-9.5 3t-10.5 3t-10 3.5l208 50v-790q0 -98 82 -108l-149 -55q-21 15 -30 23t-20 23.5t-14.5 37.5t-3.5 56 q-126 -140 -290 -140q-36 0 -73 9.5t-78 36t-71.5 66.5t-51 107t-20.5 152v455q0 10 -1 18.5t-4 15t-5 11.5t-8.5 9t-8.5 6.5t-10.5 5.5t-10 4t-11.5 3.5t-10 3.5zM271 986l5 -2q-1 5 12 28t32 52t38.5 57.5t33.5 47.5l13 19q5 5 15.5 18t16.5 19l15 15t18 14t19 7 q29 0 50.5 -18t23.5 -45q7 -44 -62 -78q-3 -1 -7 -4t-17.5 -12.5t-26.5 -18.5t-31 -21.5t-34.5 -23t-33.5 -21.5t-30.5 -18.5t-24.5 -12t-16 -4.5l-4 1.5t-5 0.5zM529 984v2q0 8 37.5 56t74.5 92l38 44q18 20 27.5 30t28 22t34.5 12q28 0 47.5 -19.5t19.5 -46.5 q0 -42 -69 -75q-204 -117 -234 -117h-4z" />
<glyph unicode="&#x178;" horiz-adv-x="870" d="M-155 1351h354q-2 -1 -10.5 -4.5t-10.5 -4.5t-9 -4t-9 -4.5t-6.5 -5t-6.5 -6.5t-4.5 -7t-3 -8.5t-0.5 -9.5q0 -21 26 -69l294 -495l272 522q16 26 16 48q0 17 -12.5 28t-40.5 20h238q-28 -13 -49 -28t-36.5 -32.5t-27.5 -41.5l-322 -603v-557q0 -52 71 -89h-308 q74 36 74 89v548l-374 618q-22 35 -46 54.5t-69 41.5zM209 1520q0 22 11.5 42t31.5 31.5t42 11.5q34 0 59.5 -25.5t25.5 -59.5q0 -17 -7 -33t-18.5 -27.5t-27.5 -18t-34 -6.5q-35 0 -59 24t-24 61zM483 1520q0 34 24.5 59.5t58.5 25.5q36 0 61 -25t25 -60q0 -36 -24.5 -60.5 t-61.5 -24.5q-16 0 -31.5 6.5t-27 17.5t-18 27t-6.5 34z" />
<glyph unicode="&#x179;" horiz-adv-x="961" d="M-19 0l745 1276q-59 0 -163 1.5t-148 1.5q-181 0 -246 -22q-48 -16 -82.5 -46t-50.5 -63v203h919l-739 -1271q5 0 68.5 -2t115.5 -2q252 0 400 23q50 9 81 39.5t46 66.5v-205h-946zM405 1412v2q0 6 15.5 27.5t38 49t44.5 54t37 44.5l16 18q50 63 88 63q28 0 46.5 -18.5 t18.5 -46.5q0 -44 -65 -75q-203 -120 -235 -120z" />
<glyph unicode="&#x17a;" horiz-adv-x="744" d="M-28 0l525 842q-44 2 -177 2q-151 0 -201 -2q-42 -3 -66.5 -20t-38.5 -47l5 137h678l-519 -844h90q209 0 338 8q14 1 26 3t21.5 6t17 8.5t13 10.5t10 11t8.5 12.5t6.5 13t6 13.5t6.5 13l-8 -167h-741zM252 995q-2 3 5 14.5t19.5 29t28.5 37.5t33 40t30.5 36t22.5 26l9 10 q46 63 91 63q26 0 44.5 -18.5t18.5 -46.5q0 -44 -65 -75l-145 -79q-86 -44 -92 -37z" />
<glyph unicode="&#x17b;" horiz-adv-x="961" d="M-34 0l745 1276q-58 0 -161.5 1.5t-147.5 1.5q-181 0 -247 -22q-48 -16 -82.5 -46t-50.5 -63v203h920l-739 -1271q4 0 67.5 -2t114.5 -2q253 0 402 23q49 9 80.5 39.5t46.5 66.5v-205h-948zM366 1536q0 41 29.5 71t71.5 30q44 0 75.5 -28.5t31.5 -71.5t-30.5 -72.5 t-73.5 -29.5q-45 0 -74.5 28.5t-29.5 72.5z" />
<glyph unicode="&#x17c;" horiz-adv-x="762" d="M-28 0l525 842q-44 2 -177 2q-151 0 -201 -2q-42 -3 -66.5 -20t-38.5 -47l5 137h678l-519 -844h90q209 0 338 8q14 1 26 3t21.5 6t17 8.5t13 10.5t10 11t8.5 12.5t6.5 13t6 13.5t6.5 13l-8 -167h-741zM280 1088q0 35 25.5 60.5t60.5 25.5q37 0 63 -24t26 -60t-25.5 -61.5 t-59.5 -25.5q-39 0 -64.5 24.5t-25.5 60.5z" />
<glyph unicode="&#x17d;" horiz-adv-x="961" d="M-48 0l745 1276q-58 0 -162 1.5t-148 1.5q-181 0 -246 -22q-48 -16 -82.5 -46t-50.5 -63v203h919l-738 -1271q4 0 67.5 -2t115.5 -2q252 0 401 23q49 9 80.5 39.5t46.5 66.5v-205h-948zM187 1668h2h2q14 0 81 -31.5t127 -63.5l60 -32q235 127 267 127h3v-2 q0 -9 -64 -72.5t-131.5 -123.5t-74.5 -60q-11 0 -141.5 122.5t-130.5 135.5z" />
<glyph unicode="&#x17e;" horiz-adv-x="762" d="M-28 0l525 842q-44 2 -177 2q-151 0 -201 -2q-42 -3 -66.5 -20t-38.5 -47l5 137h678l-519 -844h90q209 0 338 8q21 1 37.5 6t26.5 11t19 16.5t12.5 17t10 20t9.5 18.5l-8 -165h-741zM83 1270v2h4q15 0 80.5 -32t124.5 -64l59 -31q237 127 269 127q4 0 4 -2 q0 -14 -129 -135.5t-141 -121.5q-11 0 -141 121.5t-130 135.5z" />
<glyph unicode="&#x192;" horiz-adv-x="718" d="M-203 -296l19 141q0 -30 11.5 -59.5t34.5 -50.5t51 -21q62 0 100.5 44.5t47.5 110.5l138 971h-151l11 72h148l30 201q18 111 86 183.5t176 72.5q98 0 174 -56l-19 -163q-3 17 -8 33.5t-12 32.5t-16.5 30t-20.5 25.5t-23 20t-25.5 13.5t-27.5 5q-127 0 -148 -194l-26 -204 h239l-12 -72h-234l-151 -943q-19 -115 -91 -177.5t-168 -62.5q-41 0 -72 11t-61 36z" />
<glyph unicode="&#x2c6;" horiz-adv-x="673" d="M8 1069q0 60 19.5 110.5t51 83.5t72.5 56t81.5 33.5t79.5 10.5q77 0 137.5 -32t98 -86t57 -122t19.5 -145q0 -67 -18.5 -136t-52.5 -130t-79 -109t-103.5 -76t-120.5 -28q-66 0 -110.5 20.5t-58.5 52.5q3 -1 9 -4q23 -12 34 -16.5t32.5 -8t53.5 -3.5q50 0 95 22t78 58 t58.5 82t40 94t19.5 94q-70 -92 -221 -92q-46 0 -93 18t-87.5 51t-66 86t-25.5 116zM117 1088q0 -20 4.5 -46.5t18.5 -61t34.5 -62.5t57 -47.5t82.5 -19.5q90 0 143 63t53 155v-2q0 110 -57.5 178t-138.5 68q-40 0 -72.5 -11t-52.5 -27t-34.5 -40t-21.5 -43.5t-11 -44 t-4.5 -35.5t-0.5 -24z" />
<glyph unicode="&#x2da;" horiz-adv-x="891" d="M298 1122q0 51 37.5 90t87.5 39q51 0 91 -38.5t40 -90.5q0 -50 -39 -88.5t-90 -38.5t-89 37.5t-38 89.5zM340 1122q0 -37 23.5 -62t59.5 -25q24 0 43.5 11.5t30.5 31.5t11 44h2q0 36 -24 60t-61 24t-61 -24t-24 -60z" />
<glyph unicode="&#x2dc;" horiz-adv-x="823" d="M99 1052q2 12 21 33.5t46 44t65 38.5t73 16q28 0 104.5 -31t105.5 -31t54 11t36 22l10 11l40 -21q-4 -5 -11 -12.5t-28.5 -26.5t-43.5 -34t-53 -27t-59 -12q-40 0 -84.5 17.5t-78.5 35t-50 17.5q-25 0 -52 -16t-41 -32l-14 -16z" />
<glyph unicode="&#x2000;" horiz-adv-x="877" />
<glyph unicode="&#x2001;" horiz-adv-x="1754" />
<glyph unicode="&#x2002;" horiz-adv-x="877" />
<glyph unicode="&#x2003;" horiz-adv-x="1754" />
<glyph unicode="&#x2004;" horiz-adv-x="584" />
<glyph unicode="&#x2005;" horiz-adv-x="438" />
<glyph unicode="&#x2006;" horiz-adv-x="292" />
<glyph unicode="&#x2007;" horiz-adv-x="292" />
<glyph unicode="&#x2008;" horiz-adv-x="219" />
<glyph unicode="&#x2009;" horiz-adv-x="350" />
<glyph unicode="&#x200a;" horiz-adv-x="97" />
<glyph unicode="&#x2010;" horiz-adv-x="474" d="M64 465v107h353v-105z" />
<glyph unicode="&#x2011;" horiz-adv-x="474" d="M64 465v107h353v-105z" />
<glyph unicode="&#x2012;" horiz-adv-x="474" d="M64 465v107h353v-105z" />
<glyph unicode="&#x2013;" horiz-adv-x="779" d="M74 599v150h637v-150h-637z" />
<glyph unicode="&#x2014;" horiz-adv-x="1249" d="M61 474v91h1129v-91h-1129z" />
<glyph unicode="&#x2018;" horiz-adv-x="269" d="M17 1086q0 63 26 130t61 110t65 48q7 5 11 -1q4 -7 -9 -10q-22 -5 -53 -79.5t-31 -157.5q2 2 14 5t16 3q24 0 44 -11.5t32 -31t12 -40.5q0 -39 -25.5 -63.5t-60.5 -24.5q-43 0 -72.5 35t-29.5 88z" />
<glyph unicode="&#x2019;" horiz-adv-x="269" d="M16 1285q0 26 11.5 46t31 30t42.5 10q27 0 50 -16t36.5 -44t13.5 -64q0 -47 -15 -98t-37.5 -90t-49.5 -67t-50 -33q-7 -3 -10 3t9 9q13 3 32.5 35.5t36 89.5t16.5 114q-3 -3 -14.5 -5.5t-17.5 -2.5q-36 0 -60.5 24.5t-24.5 58.5z" />
<glyph unicode="&#x201a;" horiz-adv-x="269" d="M59 74q0 39 25.5 63t61.5 24q41 0 69.5 -35t28.5 -88q0 -63 -25 -129.5t-60 -109.5t-66 -49q-7 -5 -10 2t8 9q13 4 32.5 36t36.5 88.5t17 112.5q-16 -8 -31 -8q-36 0 -61.5 25.5t-25.5 58.5z" />
<glyph unicode="&#x201c;" horiz-adv-x="480" d="M17 1086q0 63 26 130t61 110t65 48q7 5 11 -1q4 -7 -9 -10q-22 -5 -53 -79.5t-31 -157.5q2 2 14 5t16 3q36 0 61 -25t25 -58h2q0 -39 -25.5 -63.5t-60.5 -24.5q-43 0 -72.5 35t-29.5 88zM231 1086q0 64 25 130.5t60 109.5t65 48q8 5 11 -1q3 -7 -9 -10 q-13 -3 -32.5 -35.5t-36 -89t-16.5 -112.5q15 8 32 8q23 0 43 -11.5t31 -31t11 -40.5q0 -39 -25 -63.5t-60 -24.5q-42 0 -70.5 35t-28.5 88z" />
<glyph unicode="&#x201d;" horiz-adv-x="480" d="M16 1285q0 26 11.5 46t31 30t42.5 10q27 0 50 -16t36.5 -44t13.5 -64q0 -47 -15 -98t-37.5 -90t-49.5 -67t-50 -33q-7 -3 -10 3t9 9q13 3 32.5 35.5t36 89.5t16.5 114q-3 -3 -14.5 -5.5t-17.5 -2.5q-36 0 -60.5 24.5t-24.5 58.5zM229 1285q0 39 25.5 62.5t59.5 23.5 q43 0 72 -35t29 -89q0 -62 -25.5 -128t-60.5 -109.5t-65 -50.5q-8 -3 -11 3q-3 5 6 8q1 1 3 1q13 3 32 35.5t35 89.5t16 114q-1 -3 -12 -5.5t-17 -2.5q-35 0 -61 24.5t-26 58.5z" />
<glyph unicode="&#x201e;" horiz-adv-x="517" d="M74 74q0 26 11.5 46t31 30.5t42.5 10.5q42 0 70.5 -35t28.5 -88q0 -63 -25 -129.5t-60 -109.5t-65 -49q-8 -5 -11 2t9 9q9 3 23.5 23.5t28 51.5t23.5 75t10 87q-15 -8 -32 -8q-35 0 -60 25t-25 59zM288 74q0 39 25 63t60 24q28 0 50.5 -15.5t35.5 -44t13 -63.5 q0 -63 -24.5 -129.5t-59.5 -109.5t-66 -49q-7 -5 -10 2t8 9q10 3 24 23.5t28 51.5t23.5 75t9.5 87q-15 -8 -32 -8q-35 0 -60 25t-25 59z" />
<glyph unicode="&#x2020;" horiz-adv-x="895" d="M6 855v121h360v116q0 50 -16.5 149t-37.5 110h215q-21 -10 -37 -108.5t-16 -150.5v-116h356v-119v-2q-3 7 -14.5 12t-29.5 8t-37 4.5t-43 2t-40.5 0.5h-37.5h-26h-128v-1017q0 -52 15.5 -149.5t37.5 -109.5h-215q21 10 37.5 109t16.5 150v1017h-131h-25.5h-36.5 t-40.5 -0.5t-43.5 -2t-37.5 -4.5t-30.5 -8t-15 -12z" />
<glyph unicode="&#x2021;" horiz-adv-x="895" d="M10 349v123h360v410h-131h-26h-37t-40.5 -0.5t-43 -2t-37 -4.5t-30.5 -8t-15 -12v121h360v116q0 52 -16 150t-38 109h217q-21 -10 -37.5 -109t-16.5 -150v-116h357v-121q-3 7 -14 12t-29.5 8t-37 4.5t-43 2t-40.5 0.5h-36.5h-25.5h-131v-410h357v-123q-3 7 -14 12.5 t-29.5 8.5t-36.5 4.5t-43.5 2.5t-40.5 1t-37 -0.5t-25 -0.5h-131v-512q0 -52 15.5 -149.5t38.5 -109.5h-217q21 10 37.5 109t16.5 150v510h-131q-1 0 -38.5 1t-59 0t-55 -3t-52.5 -8t-24 -16z" />
<glyph unicode="&#x2022;" horiz-adv-x="804" d="M8 642q0 98 47 180t129 129.5t180 47.5t180 -47t129.5 -129t47.5 -181q0 -97 -47.5 -178.5t-129 -128.5t-178.5 -47q-99 0 -181.5 47t-129.5 128.5t-47 178.5z" />
<glyph unicode="&#x2026;" horiz-adv-x="1113" d="M51 74q0 37 25.5 62t62.5 25q34 0 58.5 -25t24.5 -60h2q0 -24 -11.5 -43.5t-31.5 -31t-42 -11.5q-36 0 -62 25t-26 59zM451 74q0 37 24.5 62t58.5 25q39 0 63.5 -24.5t24.5 -60.5h2q0 -36 -25.5 -61t-62.5 -25q-34 0 -59.5 25t-25.5 59zM836 74q0 24 11 44t30 31.5 t43 11.5q35 0 60 -25t25 -60.5t-24 -60.5t-59.5 -25t-60.5 24.5t-25 59.5z" />
<glyph unicode="&#x202f;" horiz-adv-x="350" />
<glyph unicode="&#x2030;" horiz-adv-x="1660" d="M17 1031q0 75 22 138.5t58 105.5t83 65.5t96 22.5q48 0 93 -23.5t80 -65t56.5 -105t21.5 -138.5h2q0 -79 -23 -144.5t-60.5 -105.5t-82.5 -62t-92 -22t-92 22t-81 63t-58.5 105.5t-22.5 143.5zM115 0q100 171 369 683.5t339 667.5h100q-102 -174 -370 -685.5t-337 -665.5 h-101zM137 1025q0 -138 37.5 -210t96.5 -74q59 0 97 74t39 214v10q0 130 -36 211t-91 81q-41 0 -72.5 -34t-50.5 -102t-20 -160v-10zM510 320q0 75 22 139t58 106t82 65.5t95 23.5t94 -23.5t80.5 -65t56.5 -105t21 -138.5q0 -79 -22.5 -144.5t-60 -105.5t-82.5 -62t-92 -22 t-91.5 22t-80.5 62t-58 104.5t-22 143.5zM628 318q0 -57 6.5 -104.5t18.5 -81t29 -57t36.5 -34.5t41.5 -11q63 -1 102 72.5t40 215.5v8q0 130 -37.5 212t-93.5 82q-61 0 -101.5 -79.5t-41.5 -214.5v-8zM1084 320q0 75 22 139t58 106t82 65.5t96 23.5q48 0 93 -23.5t80 -65 t56.5 -105t21.5 -138.5q0 -79 -22.5 -144.5t-59.5 -105.5t-82 -62t-92 -22t-91.5 22t-81 62t-58.5 104.5t-22 143.5zM1204 314q0 -138 36 -211t93 -73q62 -1 101 73t40 215v12q0 85 -17.5 152t-47 102.5t-65.5 35.5q-60 0 -99.5 -79t-40.5 -215v-12z" />
<glyph unicode="&#x2039;" horiz-adv-x="625" d="M97 489v157q20 0 53 9t84.5 35t105.5 64t117 104.5t117 148.5q-5 -21 -13.5 -45.5t-25.5 -65.5t-37 -79.5t-50.5 -81t-64 -75.5t-79 -58t-94.5 -34q49 -11 94.5 -37.5t79 -60t64 -76t50.5 -80.5t37 -78t25.5 -64.5t13.5 -44.5q-54 81 -117.5 146.5t-117.5 104t-105.5 65 t-84.5 36.5t-52 10z" />
<glyph unicode="&#x203a;" horiz-adv-x="625" d="M57 127q5 17 12 38t19.5 54t29.5 65.5t39 69.5t50 70.5t60 62.5t72 50.5t84 30.5q-49 9 -94.5 34.5t-78.5 57t-64 76t-50.5 80.5t-38 80t-25.5 65.5t-15 45.5q54 -82 117.5 -148.5t117 -104.5t105.5 -64t85.5 -35t53.5 -9v-157q-18 0 -51 -10t-85 -36.5t-106 -65 t-118 -104t-119 -146.5z" />
<glyph unicode="&#x2044;" horiz-adv-x="921" d="M-8 0q38 68 162.5 273t247.5 406.5t238 400t147 271.5h105q-46 -84 -231.5 -389t-353 -588t-206.5 -374h-109z" />
<glyph unicode="&#x205f;" horiz-adv-x="438" />
<glyph unicode="&#x20ac;" horiz-adv-x="1133" d="M4 561l24 67h127v43q0 54 2 78h-151l26 68h131q23 170 97 293t193 189t273 66q53 0 116.5 -19t100.5 -38l37 -19v-252q-35 116 -109.5 189t-165.5 73q-142 0 -241 -124.5t-121 -357.5h161q98 0 174.5 4t116.5 10t66.5 11.5t33.5 9.5l7 5l-62 -142q-2 4 -14 9.5t-103 15 t-246 9.5h-137v-52v-69h81q97 0 174 4t117 9.5t66 11.5t33 10l8 4l-62 -140q-2 4 -14.5 9.5t-104 15t-244.5 9.5h-49q12 -98 41.5 -177.5t68.5 -132t87 -88t96.5 -51t98.5 -15.5t96 12t81.5 32t59.5 38t44 37q-2 -16 -11 -37.5t-25.5 -48t-44.5 -51.5t-63.5 -46t-86 -34 t-108.5 -13q-115 0 -208 41.5t-157.5 118t-103.5 181.5t-51 234h-155z" />
<glyph unicode="&#x2122;" horiz-adv-x="605" d="M64 1323v28h190v-28h-76v-398h-35v398h-79zM309 925v426h59l85 -358l93 358h56v-426h-30v402l-103 -402h-30l-98 402v-402h-32z" />
<glyph unicode="&#x25fc;" horiz-adv-x="913" d="M0 0v914h914v-914h-914z" />
</font>
</defs>
</svg>
